  0
SECTION
  2
HEADER
  9
$ACADVER
  1
AC1015
  9
$ACADMAINTVER
 70
    20
  9
$DWGCODEPAGE
  3
ANSI_932
  9
$INSBASE
 10
0.0
 20
0.0
 30
0.0
  9
$EXTMIN
 10
109.5910479758758
 20
10.0820392438058
 30
0.0
  9
$EXTMAX
 10
289.7482074636524
 20
280.3556131669723
 30
0.0
  9
$LIMMIN
 10
0.0
 20
0.0
  9
$LIMMAX
 10
420.0
 20
297.0
  9
$ORTHOMODE
 70
     0
  9
$REGENMODE
 70
     1
  9
$FILLMODE
 70
     1
  9
$QTEXTMODE
 70
     0
  9
$MIRRTEXT
 70
     0
  9
$LTSCALE
 40
1.0
  9
$ATTMODE
 70
     1
  9
$TEXTSIZE
 40
0.2
  9
$TRACEWID
 40
0.05
  9
$TEXTSTYLE
  7
STANDARD
  9
$CLAYER
  8
0
  9
$CELTYPE
  6
CONTINUOUS
  9
$CECOLOR
 62
   256
  9
$CELTSCALE
 40
1.0
  9
$DISPSILH
 70
     0
  9
$DIMSCALE
 40
1.0
  9
$DIMASZ
 40
0.18
  9
$DIMEXO
 40
0.0625
  9
$DIMDLI
 40
0.38
  9
$DIMRND
 40
0.0
  9
$DIMDLE
 40
0.0
  9
$DIMEXE
 40
0.18
  9
$DIMTP
 40
0.0
  9
$DIMTM
 40
0.0
  9
$DIMTXT
 40
0.18
  9
$DIMCEN
 40
0.09
  9
$DIMTSZ
 40
0.0
  9
$DIMTOL
 70
     0
  9
$DIMLIM
 70
     0
  9
$DIMTIH
 70
     1
  9
$DIMTOH
 70
     1
  9
$DIMSE1
 70
     0
  9
$DIMSE2
 70
     0
  9
$DIMTAD
 70
     0
  9
$DIMZIN
 70
     0
  9
$DIMBLK
  1

  9
$DIMASO
 70
     1
  9
$DIMSHO
 70
     1
  9
$DIMPOST
  1

  9
$DIMAPOST
  1

  9
$DIMALT
 70
     0
  9
$DIMALTD
 70
     2
  9
$DIMALTF
 40
25.4
  9
$DIMLFAC
 40
1.0
  9
$DIMTOFL
 70
     0
  9
$DIMTVP
 40
0.0
  9
$DIMTIX
 70
     0
  9
$DIMSOXD
 70
     0
  9
$DIMSAH
 70
     0
  9
$DIMBLK1
  1

  9
$DIMBLK2
  1

  9
$DIMSTYLE
  2
Standard
  9
$DIMCLRD
 70
     0
  9
$DIMCLRE
 70
     0
  9
$DIMCLRT
 70
     0
  9
$DIMTFAC
 40
1.0
  9
$DIMGAP
 40
0.09
  9
$DIMJUST
 70
     0
  9
$DIMSD1
 70
     0
  9
$DIMSD2
 70
     0
  9
$DIMTOLJ
 70
     1
  9
$DIMTZIN
 70
     0
  9
$DIMALTZ
 70
     0
  9
$DIMALTTZ
 70
     0
  9
$DIMUPT
 70
     0
  9
$DIMDEC
 70
     4
  9
$DIMTDEC
 70
     4
  9
$DIMALTU
 70
     2
  9
$DIMALTTD
 70
     2
  9
$DIMTXSTY
  7
STANDARD
  9
$DIMAUNIT
 70
     0
  9
$DIMADEC
 70
     0
  9
$DIMALTRND
 40
0.0
  9
$DIMAZIN
 70
     0
  9
$DIMDSEP
 70
    46
  9
$DIMATFIT
 70
     3
  9
$DIMFRAC
 70
     0
  9
$DIMLDRBLK
  1

  9
$DIMLUNIT
 70
     2
  9
$DIMLWD
 70
    -2
  9
$DIMLWE
 70
    -2
  9
$DIMTMOVE
 70
     0
  9
$LUNITS
 70
     2
  9
$LUPREC
 70
     4
  9
$SKETCHINC
 40
0.1
  9
$FILLETRAD
 40
0.0
  9
$AUNITS
 70
     0
  9
$AUPREC
 70
     0
  9
$MENU
  1
.
  9
$ELEVATION
 40
0.0
  9
$PELEVATION
 40
0.0
  9
$THICKNESS
 40
0.0
  9
$LIMCHECK
 70
     0
  9
$CHAMFERA
 40
0.0
  9
$CHAMFERB
 40
0.0
  9
$CHAMFERC
 40
0.0
  9
$CHAMFERD
 40
0.0
  9
$SKPOLY
 70
     0
  9
$TDCREATE
 40
2456518.425585394
  9
$TDUCREATE
 40
2456518.050585394
  9
$TDUPDATE
 40
2456518.427257662
  9
$TDUUPDATE
 40
2456518.052257662
  9
$TDINDWG
 40
0.0016726273
  9
$TDUSRTIMER
 40
0.0016726273
  9
$USRTIMER
 70
     1
  9
$ANGBASE
 50
0.0
  9
$ANGDIR
 70
     0
  9
$PDMODE
 70
     0
  9
$PDSIZE
 40
0.0
  9
$PLINEWID
 40
0.0
  9
$SPLFRAME
 70
     0
  9
$SPLINETYPE
 70
     6
  9
$SPLINESEGS
 70
     8
  9
$HANDSEED
  5
338
  9
$SURFTAB1
 70
     6
  9
$SURFTAB2
 70
     6
  9
$SURFTYPE
 70
     6
  9
$SURFU
 70
     6
  9
$SURFV
 70
     6
  9
$UCSBASE
  2

  9
$UCSNAME
  2

  9
$UCSORG
 10
0.0
 20
0.0
 30
0.0
  9
$UCSXDIR
 10
1.0
 20
0.0
 30
0.0
  9
$UCSYDIR
 10
0.0
 20
1.0
 30
0.0
  9
$UCSORTHOREF
  2

  9
$UCSORTHOVIEW
 70
     0
  9
$UCSORGTOP
 10
0.0
 20
0.0
 30
0.0
  9
$UCSORGBOTTOM
 10
0.0
 20
0.0
 30
0.0
  9
$UCSORGLEFT
 10
0.0
 20
0.0
 30
0.0
  9
$UCSORGRIGHT
 10
0.0
 20
0.0
 30
0.0
  9
$UCSORGFRONT
 10
0.0
 20
0.0
 30
0.0
  9
$UCSORGBACK
 10
0.0
 20
0.0
 30
0.0
  9
$PUCSBASE
  2

  9
$PUCSNAME
  2

  9
$PUCSORG
 10
0.0
 20
0.0
 30
0.0
  9
$PUCSXDIR
 10
1.0
 20
0.0
 30
0.0
  9
$PUCSYDIR
 10
0.0
 20
1.0
 30
0.0
  9
$PUCSORTHOREF
  2

  9
$PUCSORTHOVIEW
 70
     0
  9
$PUCSORGTOP
 10
0.0
 20
0.0
 30
0.0
  9
$PUCSORGBOTTOM
 10
0.0
 20
0.0
 30
0.0
  9
$PUCSORGLEFT
 10
0.0
 20
0.0
 30
0.0
  9
$PUCSORGRIGHT
 10
0.0
 20
0.0
 30
0.0
  9
$PUCSORGFRONT
 10
0.0
 20
0.0
 30
0.0
  9
$PUCSORGBACK
 10
0.0
 20
0.0
 30
0.0
  9
$USERI1
 70
     0
  9
$USERI2
 70
     0
  9
$USERI3
 70
     0
  9
$USERI4
 70
     0
  9
$USERI5
 70
     0
  9
$USERR1
 40
0.0
  9
$USERR2
 40
0.0
  9
$USERR3
 40
0.0
  9
$USERR4
 40
0.0
  9
$USERR5
 40
0.0
  9
$WORLDVIEW
 70
     1
  9
$SHADEDGE
 70
     3
  9
$SHADEDIF
 70
    70
  9
$TILEMODE
 70
     1
  9
$MAXACTVP
 70
    64
  9
$PINSBASE
 10
0.0
 20
0.0
 30
0.0
  9
$PLIMCHECK
 70
     0
  9
$PEXTMIN
 10
1.000000000000000E+20
 20
1.000000000000000E+20
 30
1.000000000000000E+20
  9
$PEXTMAX
 10
-1.000000000000000E+20
 20
-1.000000000000000E+20
 30
-1.000000000000000E+20
  9
$PLIMMIN
 10
0.0
 20
0.0
  9
$PLIMMAX
 10
12.0
 20
9.0
  9
$UNITMODE
 70
     0
  9
$VISRETAIN
 70
     1
  9
$PLINEGEN
 70
     0
  9
$PSLTSCALE
 70
     1
  9
$TREEDEPTH
 70
  3020
  9
$CMLSTYLE
  2
Standard
  9
$CMLJUST
 70
     0
  9
$CMLSCALE
 40
1.0
  9
$PROXYGRAPHICS
 70
     1
  9
$MEASUREMENT
 70
     0
  9
$CELWEIGHT
370
    -1
  9
$ENDCAPS
280
     0
  9
$JOINSTYLE
280
     0
  9
$LWDISPLAY
290
     0
  9
$INSUNITS
 70
     0
  9
$HYPERLINKBASE
  1

  9
$STYLESHEET
  1

  9
$XEDIT
290
     1
  9
$CEPSNTYPE
380
     0
  9
$PSTYLEMODE
290
     1
  9
$FINGERPRINTGUID
  2
{7BBC9B43-1C75-4C35-B9C5-2C5EF9529527}
  9
$VERSIONGUID
  2
{428D8747-8763-4E8B-A0A2-A9F9DA8A0811}
  9
$EXTNAMES
290
     1
  9
$PSVPSCALE
 40
0.0
  9
$OLESTARTUP
290
     0
  0
ENDSEC
  0
SECTION
  2
CLASSES
  0
CLASS
  1
ACDBDICTIONARYWDFLT
  2
AcDbDictionaryWithDefault
  3
ObjectDBX Classes
 90
        0
280
     0
281
     0
  0
CLASS
  1
TABLESTYLE
  2
AcDbTableStyle
  3
ObjectDBX Classes
 90
     2047
280
     0
281
     0
  0
CLASS
  1
DICTIONARYVAR
  2
AcDbDictionaryVar
  3
ObjectDBX Classes
 90
        0
280
     0
281
     0
  0
CLASS
  1
ACDBPLACEHOLDER
  2
AcDbPlaceHolder
  3
ObjectDBX Classes
 90
        0
280
     0
281
     0
  0
CLASS
  1
LAYOUT
  2
AcDbLayout
  3
ObjectDBX Classes
 90
        0
280
     0
281
     0
  0
ENDSEC
  0
SECTION
  2
TABLES
  0
TABLE
  2
VPORT
  5
8
330
0
100
AcDbSymbolTable
 70
     3
  0
VPORT
  5
332
330
8
100
AcDbSymbolTableRecord
100
AcDbViewportTableRecord
  2
*Active
 70
     0
 10
0.0
 20
0.0
 11
1.0
 21
1.0
 12
234.9385473365413
 22
84.48312950221305
 13
0.0
 23
0.0
 14
1.0
 24
1.0
 15
0.0
 25
0.0
 16
0.0
 26
0.0
 36
1.0
 17
0.0
 27
0.0
 37
0.0
 40
415.1176337240231
 41
1.603406326034063
 42
50.0
 43
0.0
 44
0.0
 50
0.0
 51
0.0
 71
     0
 72
   100
 73
     1
 74
     1
 75
     0
 76
     0
 77
     0
 78
     0
281
     0
 65
     1
110
0.0
120
0.0
130
0.0
111
1.0
121
0.0
131
0.0
112
0.0
122
1.0
132
0.0
 79
     0
146
0.0
  0
ENDTAB
  0
TABLE
  2
LTYPE
  5
5
330
0
100
AcDbSymbolTable
 70
    36
  0
LTYPE
  5
13
330
5
100
AcDbSymbolTableRecord
100
AcDbLinetypeTableRecord
  2
ByBlock
 70
     0
  3

 72
    65
 73
     0
 40
0.0
  0
LTYPE
  5
14
330
5
100
AcDbSymbolTableRecord
100
AcDbLinetypeTableRecord
  2
ByLayer
 70
     0
  3

 72
    65
 73
     0
 40
0.0
  0
LTYPE
  5
15
330
5
100
AcDbSymbolTableRecord
100
AcDbLinetypeTableRecord
  2
CONTINUOUS
 70
     0
  3
実線
 72
    65
 73
     0
 40
0.0
  0
LTYPE
  5
26
330
5
100
AcDbSymbolTableRecord
100
AcDbLinetypeTableRecord
  2
DASHED1
 70
     0
  3
--  --  --  --  --  --  --  --  
 72
    65
 73
     2
 40
2.5
 49
1.25
 74
     0
 49
-1.25
 74
     0
  0
LTYPE
  5
27
330
5
100
AcDbSymbolTableRecord
100
AcDbLinetypeTableRecord
  2
DASHED2
 70
     0
  3
----    ----    ----    ----    
 72
    65
 73
     2
 40
5.0
 49
2.5
 74
     0
 49
-2.5
 74
     0
  0
LTYPE
  5
28
330
5
100
AcDbSymbolTableRecord
100
AcDbLinetypeTableRecord
  2
DASHED3
 70
     0
  3
------  ------  ------  ------  
 72
    65
 73
     2
 40
5.0
 49
3.75
 74
     0
 49
-1.25
 74
     0
  0
LTYPE
  5
29
330
5
100
AcDbSymbolTableRecord
100
AcDbLinetypeTableRecord
  2
CENTER1
 70
     0
  3
----- - ----- - ----- - ----- - 
 72
    65
 73
     4
 40
10.0
 49
6.25
 74
     0
 49
-1.25
 74
     0
 49
1.25
 74
     0
 49
-1.25
 74
     0
  0
LTYPE
  5
2A
330
5
100
AcDbSymbolTableRecord
100
AcDbLinetypeTableRecord
  2
CENTER2
 70
     0
  3
----------  --  ----------  --  
 72
    65
 73
     4
 40
20.0
 49
12.5
 74
     0
 49
-2.5
 74
     0
 49
2.5
 74
     0
 49
-2.5
 74
     0
  0
LTYPE
  5
2B
330
5
100
AcDbSymbolTableRecord
100
AcDbLinetypeTableRecord
  2
PHANTOM1
 70
     0
  3
--- - - --- - - --- - - --- - - 
 72
    65
 73
     6
 40
10.0
 49
3.25
 74
     0
 49
-1.25
 74
     0
 49
1.25
 74
     0
 49
-1.25
 74
     0
 49
1.25
 74
     0
 49
-1.25
 74
     0
  0
LTYPE
  5
2C
330
5
100
AcDbSymbolTableRecord
100
AcDbLinetypeTableRecord
  2
PHANTOM2
 70
     0
  3
--------  -  -  --------  -  -  
 72
    65
 73
     6
 40
20.0
 49
10.0
 74
     0
 49
-2.5
 74
     0
 49
1.25
 74
     0
 49
-2.5
 74
     0
 49
1.25
 74
     0
 49
-2.5
 74
     0
  0
LTYPE
  5
2D
330
5
100
AcDbSymbolTableRecord
100
AcDbLinetypeTableRecord
  2
DOT
 70
     0
  3
-   -   -   -   -   -   -   -   
 72
    65
 73
     2
 40
2.5
 49
0.625
 74
     0
 49
-1.875
 74
     0
  0
LTYPE
  5
2E
330
5
100
AcDbSymbolTableRecord
100
AcDbLinetypeTableRecord
  2
DUMMY
 70
     0
  3
ダミー
 72
    65
 73
     0
 40
0.0
  0
LTYPE
  5
2F
330
5
100
AcDbSymbolTableRecord
100
AcDbLinetypeTableRecord
  2
RAND1
 70
     0
  3
ランダム線1
 72
    65
 73
     4
 40
10.0
 49
1.0
 74
     0
 49
-2.0
 74
     0
 49
3.0
 74
     0
 49
-4.0
 74
     0
  0
LTYPE
  5
30
330
5
100
AcDbSymbolTableRecord
100
AcDbLinetypeTableRecord
  2
RAND2
 70
     0
  3
ランダム線2
 72
    65
 73
     4
 40
14.0
 49
2.0
 74
     0
 49
-3.0
 74
     0
 49
4.0
 74
     0
 49
-5.0
 74
     0
  0
LTYPE
  5
31
330
5
100
AcDbSymbolTableRecord
100
AcDbLinetypeTableRecord
  2
RAND3
 70
     0
  3
ランダム線3
 72
    65
 73
     4
 40
18.0
 49
3.0
 74
     0
 49
-4.0
 74
     0
 49
5.0
 74
     0
 49
-6.0
 74
     0
  0
LTYPE
  5
32
330
5
100
AcDbSymbolTableRecord
100
AcDbLinetypeTableRecord
  2
RAND4
 70
     0
  3
ランダム線4
 72
    65
 73
     4
 40
22.0
 49
4.0
 74
     0
 49
-5.0
 74
     0
 49
6.0
 74
     0
 49
-7.0
 74
     0
  0
LTYPE
  5
33
330
5
100
AcDbSymbolTableRecord
100
AcDbLinetypeTableRecord
  2
RAND5
 70
     0
  3
ランダム線5
 72
    65
 73
     4
 40
26.0
 49
5.0
 74
     0
 49
-6.0
 74
     0
 49
7.0
 74
     0
 49
-8.0
 74
     0
  0
LTYPE
  5
34
330
5
100
AcDbSymbolTableRecord
100
AcDbLinetypeTableRecord
  2
LONG1
 70
     0
  3
----------  --  ----------  --  
 72
    65
 73
     4
 40
40.0
 49
32.5
 74
     0
 49
-2.5
 74
     0
 49
2.5
 74
     0
 49
-2.5
 74
     0
  0
LTYPE
  5
35
330
5
100
AcDbSymbolTableRecord
100
AcDbLinetypeTableRecord
  2
LONG2
 70
     0
  3
--------  -  -  --------  -  -  
 72
    65
 73
     6
 40
40.0
 49
30.0
 74
     0
 49
-2.5
 74
     0
 49
1.25
 74
     0
 49
-2.5
 74
     0
 49
1.25
 74
     0
 49
-2.5
 74
     0
  0
LTYPE
  5
36
330
5
100
AcDbSymbolTableRecord
100
AcDbLinetypeTableRecord
  2
LONG3
 70
     0
  3
+++++++++++++++..+++++++++++++++
 72
    65
 73
     2
 40
40.0
 49
37.5
 74
     0
 49
-2.5
 74
     0
  0
LTYPE
  5
37
330
5
100
AcDbSymbolTableRecord
100
AcDbLinetypeTableRecord
  2
LONG4
 70
     0
  3
+++++++++++++++..+++++++++++++++
 72
    65
 73
     2
 40
80.0
 49
75.0
 74
     0
 49
-5.0
 74
     0
  0
LTYPE
  5
38
330
5
100
AcDbSymbolTableRecord
100
AcDbLinetypeTableRecord
  2
LONG5
 70
     0
  3
----------  --  ----------  --  
 72
    65
 73
     4
 40
60.0
 49
37.5
 74
     0
 49
-7.5
 74
     0
 49
7.5
 74
     0
 49
-7.5
 74
     0
  0
LTYPE
  5
39
330
5
100
AcDbSymbolTableRecord
100
AcDbLinetypeTableRecord
  2
DASHED
 70
     0
  3
-------   -------------   ------
 72
    65
 73
     2
 40
7.5
 49
6.0
 74
     0
 49
-1.5
 74
     0
  0
LTYPE
  5
3A
330
5
100
AcDbSymbolTableRecord
100
AcDbLinetypeTableRecord
  2
DASHED_SPACED
 70
     0
  3
----        --------        ----
 72
    65
 73
     2
 40
12.0
 49
6.0
 74
     0
 49
-6.0
 74
     0
  0
LTYPE
  5
3B
330
5
100
AcDbSymbolTableRecord
100
AcDbLinetypeTableRecord
  2
LONG_DASHED_DOTTED
 70
     0
  3
------------- --- --------------
 72
    65
 73
     4
 40
15.25
 49
12.0
 74
     0
 49
-1.5
 74
     0
 49
0.25
 74
     0
 49
-1.5
 74
     0
  0
LTYPE
  5
3C
330
5
100
AcDbSymbolTableRecord
100
AcDbLinetypeTableRecord
  2
LONG_DASHED_DOUBLE-DOTTED
 70
     0
  3
----------- --- --- ------------
 72
    65
 73
     6
 40
17.0
 49
12.0
 74
     0
 49
-1.5
 74
     0
 49
0.25
 74
     0
 49
-1.5
 74
     0
 49
0.25
 74
     0
 49
-1.5
 74
     0
  0
LTYPE
  5
3D
330
5
100
AcDbSymbolTableRecord
100
AcDbLinetypeTableRecord
  2
LONG_DASHED_TRIPLICATE-DOTTED
 70
     0
  3
--------- --- --- --- ----------
 72
    65
 73
     8
 40
18.75
 49
12.0
 74
     0
 49
-1.5
 74
     0
 49
0.25
 74
     0
 49
-1.5
 74
     0
 49
0.25
 74
     0
 49
-1.5
 74
     0
 49
0.25
 74
     0
 49
-1.5
 74
     0
  0
LTYPE
  5
3E
330
5
100
AcDbSymbolTableRecord
100
AcDbLinetypeTableRecord
  2
DOTTED
 70
     0
  3
   -       -       -       -    
 72
    65
 73
     2
 40
1.75
 49
0.25
 74
     0
 49
-1.5
 74
     0
  0
LTYPE
  5
3F
330
5
100
AcDbSymbolTableRecord
100
AcDbLinetypeTableRecord
  2
CHAIN
 70
     0
  3
-------------- -- --------------
 72
    65
 73
     4
 40
18.5
 49
12.0
 74
     0
 49
-1.5
 74
     0
 49
3.5
 74
     0
 49
-1.5
 74
     0
  0
LTYPE
  5
40
330
5
100
AcDbSymbolTableRecord
100
AcDbLinetypeTableRecord
  2
CHAIN_DOUBLE_DASH
 70
     0
  3
------------ -- -- -------------
 72
    65
 73
     6
 40
23.5
 49
12.0
 74
     0
 49
-1.5
 74
     0
 49
3.5
 74
     0
 49
-1.5
 74
     0
 49
3.5
 74
     0
 49
-1.5
 74
     0
  0
LTYPE
  5
41
330
5
100
AcDbSymbolTableRecord
100
AcDbLinetypeTableRecord
  2
DASHED_DOTTED
 70
     0
  3
-----------     -     ----------
 72
    65
 73
     4
 40
9.25
 49
6.0
 74
     0
 49
-1.5
 74
     0
 49
0.25
 74
     0
 49
-1.5
 74
     0
  0
LTYPE
  5
42
330
5
100
AcDbSymbolTableRecord
100
AcDbLinetypeTableRecord
  2
DOUBLE-DASHED_DOTTED
 70
     0
  3
------   -----------   -   -----
 72
    65
 73
     6
 40
16.75
 49
6.0
 74
     0
 49
-1.5
 74
     0
 49
6.0
 74
     0
 49
-1.5
 74
     0
 49
0.25
 74
     0
 49
-1.5
 74
     0
  0
LTYPE
  5
43
330
5
100
AcDbSymbolTableRecord
100
AcDbLinetypeTableRecord
  2
DASHED_DOUBLE-DOTTED
 70
     0
  3
---------    -    -    ---------
 72
    65
 73
     6
 40
11.0
 49
6.0
 74
     0
 49
-1.5
 74
     0
 49
0.25
 74
     0
 49
-1.5
 74
     0
 49
0.25
 74
     0
 49
-1.5
 74
     0
  0
LTYPE
  5
44
330
5
100
AcDbSymbolTableRecord
100
AcDbLinetypeTableRecord
  2
DOUBLE-DASHED_DOUBLE-DOTTED
 70
     0
  3
-----   ---------   -   -   ----
 72
    65
 73
     8
 40
18.5
 49
6.0
 74
     0
 49
-1.5
 74
     0
 49
6.0
 74
     0
 49
-1.5
 74
     0
 49
0.25
 74
     0
 49
-1.5
 74
     0
 49
0.25
 74
     0
 49
-1.5
 74
     0
  0
LTYPE
  5
45
330
5
100
AcDbSymbolTableRecord
100
AcDbLinetypeTableRecord
  2
DASHED_TRIPLICATE-DOTTED
 70
     0
  3
-------    -    -    -    ------
 72
    65
 73
     8
 40
12.75
 49
6.0
 74
     0
 49
-1.5
 74
     0
 49
0.25
 74
     0
 49
-1.5
 74
     0
 49
0.25
 74
     0
 49
-1.5
 74
     0
 49
0.25
 74
     0
 49
-1.5
 74
     0
  0
LTYPE
  5
46
330
5
100
AcDbSymbolTableRecord
100
AcDbLinetypeTableRecord
  2
DOUBLE-DASHED_TRIPLICATE-DOTTED
 70
     0
  3
-----  ---------  -  -  -  -----
 72
    65
 73
    10
 40
20.25
 49
6.0
 74
     0
 49
-1.5
 74
     0
 49
6.0
 74
     0
 49
-1.5
 74
     0
 49
0.25
 74
     0
 49
-1.5
 74
     0
 49
0.25
 74
     0
 49
-1.5
 74
     0
 49
0.25
 74
     0
 49
-1.5
 74
     0
  0
LTYPE
  5
47
330
5
100
AcDbSymbolTableRecord
100
AcDbLinetypeTableRecord
  2
UNDEFINED
 70
     0
  3
--------------------------------
 72
    65
 73
     0
 40
0.0
  0
LTYPE
  5
16C
330
5
100
AcDbSymbolTableRecord
100
AcDbLinetypeTableRecord
  2
CENTER
 70
     0
  3
____ _ ____ _ ____ _ ____ _ ____ _ ____ _ ____
 72
    65
 73
     4
 40
2.0
 49
1.25
 74
     0
 49
-0.25
 74
     0
 49
0.25
 74
     0
 49
-0.25
 74
     0
  0
ENDTAB
  0
TABLE
  2
LAYER
  5
2
330
0
100
AcDbSymbolTable
 70
     8
  0
LAYER
  5
10
330
2
100
AcDbSymbolTableRecord
100
AcDbLayerTableRecord
  2
0
 70
     0
 62
     7
  6
CONTINUOUS
370
    -3
390
F
  0
LAYER
  5
49
330
2
100
AcDbSymbolTableRecord
100
AcDbLayerTableRecord
  2
_0-1_
 70
     0
 62
     7
  6
CONTINUOUS
370
    -3
390
F
  0
LAYER
  5
4A
330
2
100
AcDbSymbolTableRecord
100
AcDbLayerTableRecord
  2
_1-1_
 70
     0
 62
     7
  6
CONTINUOUS
370
    -3
390
F
  0
LAYER
  5
4B
330
2
100
AcDbSymbolTableRecord
100
AcDbLayerTableRecord
  2
_1-2_
 70
     0
 62
     7
  6
CONTINUOUS
370
    -3
390
F
  0
LAYER
  5
4C
330
2
100
AcDbSymbolTableRecord
100
AcDbLayerTableRecord
  2
_1-3_ADD_LINE
 70
     0
 62
     7
  6
CONTINUOUS
370
    -3
390
F
  0
LAYER
  5
4D
330
2
100
AcDbSymbolTableRecord
100
AcDbLayerTableRecord
  2
ADD_LINE
 70
     0
 62
     7
  6
CONTINUOUS
370
    -3
390
F
  0
LAYER
  5
16D
330
2
100
AcDbSymbolTableRecord
100
AcDbLayerTableRecord
  2
DEFPOINTS
 70
     0
 62
     5
  6
CONTINUOUS
290
     0
370
    -3
390
F
  0
LAYER
  5
16E
330
2
100
AcDbSymbolTableRecord
100
AcDbLayerTableRecord
  2
画層1
 70
     0
 62
     7
  6
CONTINUOUS
370
    40
390
F
1001
AcAecLayerStandard
1000

1000

  0
ENDTAB
  0
TABLE
  2
STYLE
  5
3
330
0
100
AcDbSymbolTable
 70
     3
  0
STYLE
  5
11
330
3
100
AcDbSymbolTableRecord
100
AcDbTextStyleTableRecord
  2
STANDARD
 70
     0
 40
0.0
 41
1.0
 50
0.0
 71
     0
 42
0.2
  3
txt
  4
bigfont.shx
  0
STYLE
  5
48
330
3
100
AcDbSymbolTableRecord
100
AcDbTextStyleTableRecord
  2
TATEGAKI
 70
     4
 40
0.0
 41
1.0
 50
0.0
 71
     0
 42
1.0
  3
txt
  4
bigfont.shx
  0
STYLE
  5
16F
330
3
100
AcDbSymbolTableRecord
100
AcDbTextStyleTableRecord
  2
KANJI
 70
     0
 40
0.0
 41
1.0
 50
0.0
 71
     0
 42
3.0
  3
romans
  4
extfont
  0
ENDTAB
  0
TABLE
  2
VIEW
  5
6
330
0
100
AcDbSymbolTable
 70
     0
  0
ENDTAB
  0
TABLE
  2
UCS
  5
7
330
0
100
AcDbSymbolTable
 70
     0
  0
ENDTAB
  0
TABLE
  2
APPID
  5
9
330
0
100
AcDbSymbolTable
 70
     3
  0
APPID
  5
12
330
9
100
AcDbSymbolTableRecord
100
AcDbRegAppTableRecord
  2
ACAD
 70
     0
  0
APPID
  5
171
330
9
100
AcDbSymbolTableRecord
100
AcDbRegAppTableRecord
  2
AcAecLayerStandard
 70
     0
  0
APPID
  5
172
330
9
100
AcDbSymbolTableRecord
100
AcDbRegAppTableRecord
  2
ACAD_PSEXT
 70
     0
  0
ENDTAB
  0
TABLE
  2
DIMSTYLE
  5
A
330
0
100
AcDbSymbolTable
 70
     2
100
AcDbDimStyleTable
 71
     0
  0
DIMSTYLE
105
DD
330
A
100
AcDbSymbolTableRecord
100
AcDbDimStyleTableRecord
  2
Standard
 70
     0
340
11
  0
DIMSTYLE
105
170
102
{ACAD_REACTORS
330
1AD
330
1AE
330
1AF
330
1B1
330
1B2
330
1BF
330
1C0
330
1C4
330
1C6
330
1C9
330
1CA
330
213
330
214
330
215
330
217
330
218
330
225
330
226
330
22A
330
22C
330
22F
330
230
102
}
330
A
100
AcDbSymbolTableRecord
100
AcDbDimStyleTableRecord
  2
MYCADR13
 70
     0
 40
0.0
 41
1.5
 42
1.0
 43
7.0
 44
1.5
 73
     0
 74
     0
 77
     3
 78
     8
140
3.0
141
0.0
145
0.7
146
0.5
172
     1
173
     1
174
     1
271
     1
272
     1
340
11
341
DF
343
DF
344
DF
  0
ENDTAB
  0
TABLE
  2
BLOCK_RECORD
  5
1
330
0
100
AcDbSymbolTable
 70
    24
  0
BLOCK_RECORD
  5
22
330
1
100
AcDbSymbolTableRecord
100
AcDbBlockTableRecord
  2
*Model_Space
340
25
  0
BLOCK_RECORD
  5
1E
330
1
100
AcDbSymbolTableRecord
100
AcDbBlockTableRecord
  2
*Paper_Space
340
21
  0
BLOCK_RECORD
  5
DF
330
1
100
AcDbSymbolTableRecord
100
AcDbBlockTableRecord
  2
_OPEN
340
0
102
{BLKREFS
331
10F
331
110
331
129
331
12A
331
135
331
136
331
141
331
142
331
14D
331
14E
331
159
331
15A
331
165
331
166
331
EB
331
EC
331
F7
331
F8
331
103
331
104
331
11D
331
11E
331
2C6
331
2C7
331
2CF
331
2D0
331
2D8
331
2D9
331
2E1
331
2E2
331
2EC
331
2ED
331
2F5
331
2F6
331
2FE
331
2FF
331
307
331
308
331
310
331
311
331
319
331
31A
331
322
331
323
102
}
  0
BLOCK_RECORD
  5
E5
330
1
100
AcDbSymbolTableRecord
100
AcDbBlockTableRecord
  2
*D1
340
0
  0
BLOCK_RECORD
  5
F2
330
1
100
AcDbSymbolTableRecord
100
AcDbBlockTableRecord
  2
*D2
340
0
  0
BLOCK_RECORD
  5
FE
330
1
100
AcDbSymbolTableRecord
100
AcDbBlockTableRecord
  2
*D3
340
0
  0
BLOCK_RECORD
  5
10A
330
1
100
AcDbSymbolTableRecord
100
AcDbBlockTableRecord
  2
*D4
340
0
  0
BLOCK_RECORD
  5
116
330
1
100
AcDbSymbolTableRecord
100
AcDbBlockTableRecord
  2
*D5
340
0
  0
BLOCK_RECORD
  5
124
330
1
100
AcDbSymbolTableRecord
100
AcDbBlockTableRecord
  2
*D6
340
0
  0
BLOCK_RECORD
  5
130
330
1
100
AcDbSymbolTableRecord
100
AcDbBlockTableRecord
  2
*D7
340
0
  0
BLOCK_RECORD
  5
13C
330
1
100
AcDbSymbolTableRecord
100
AcDbBlockTableRecord
  2
*D8
340
0
  0
BLOCK_RECORD
  5
148
330
1
100
AcDbSymbolTableRecord
100
AcDbBlockTableRecord
  2
*D9
340
0
  0
BLOCK_RECORD
  5
154
330
1
100
AcDbSymbolTableRecord
100
AcDbBlockTableRecord
  2
*D10
340
0
  0
BLOCK_RECORD
  5
160
330
1
100
AcDbSymbolTableRecord
100
AcDbBlockTableRecord
  2
*D11
340
0
  0
BLOCK_RECORD
  5
23B
330
1
100
AcDbSymbolTableRecord
100
AcDbBlockTableRecord
  2
*D13
340
0
  0
BLOCK_RECORD
  5
248
330
1
100
AcDbSymbolTableRecord
100
AcDbBlockTableRecord
  2
*D14
340
0
  0
BLOCK_RECORD
  5
254
330
1
100
AcDbSymbolTableRecord
100
AcDbBlockTableRecord
  2
*D15
340
0
  0
BLOCK_RECORD
  5
260
330
1
100
AcDbSymbolTableRecord
100
AcDbBlockTableRecord
  2
*D16
340
0
  0
BLOCK_RECORD
  5
26C
330
1
100
AcDbSymbolTableRecord
100
AcDbBlockTableRecord
  2
*D17
340
0
  0
BLOCK_RECORD
  5
27A
330
1
100
AcDbSymbolTableRecord
100
AcDbBlockTableRecord
  2
*D18
340
0
  0
BLOCK_RECORD
  5
286
330
1
100
AcDbSymbolTableRecord
100
AcDbBlockTableRecord
  2
*D19
340
0
  0
BLOCK_RECORD
  5
292
330
1
100
AcDbSymbolTableRecord
100
AcDbBlockTableRecord
  2
*D20
340
0
  0
BLOCK_RECORD
  5
29E
330
1
100
AcDbSymbolTableRecord
100
AcDbBlockTableRecord
  2
*D21
340
0
  0
BLOCK_RECORD
  5
2AA
330
1
100
AcDbSymbolTableRecord
100
AcDbBlockTableRecord
  2
*D22
340
0
  0
BLOCK_RECORD
  5
2B6
330
1
100
AcDbSymbolTableRecord
100
AcDbBlockTableRecord
  2
*D23
340
0
  0
ENDTAB
  0
ENDSEC
  0
SECTION
  2
BLOCKS
  0
BLOCK
  5
23
330
22
100
AcDbEntity
  8
0
100
AcDbBlockBegin
  2
*Model_Space
 70
     0
 10
0.0
 20
0.0
 30
0.0
  3
*Model_Space
  1

  0
ENDBLK
  5
24
330
22
100
AcDbEntity
  8
0
100
AcDbBlockEnd
  0
BLOCK
  5
1F
330
1E
100
AcDbEntity
 67
     1
  8
0
100
AcDbBlockBegin
  2
*Paper_Space
 70
     0
 10
0.0
 20
0.0
 30
0.0
  3
*Paper_Space
  1

  0
ENDBLK
  5
20
330
1E
100
AcDbEntity
 67
     1
  8
0
100
AcDbBlockEnd
  0
BLOCK
  5
E0
330
DF
100
AcDbEntity
  8
0
100
AcDbBlockBegin
  2
_OPEN
 70
     0
 10
0.0
 20
0.0
 30
0.0
  3
_OPEN
  1

  0
LINE
  5
E1
330
DF
100
AcDbEntity
  8
0
  6
ByBlock
 62
     0
100
AcDbLine
 10
-1.0
 20
0.1666666666666666
 30
0.0
 11
0.0
 21
0.0
 31
0.0
  0
LINE
  5
E2
330
DF
100
AcDbEntity
  8
0
  6
ByBlock
 62
     0
100
AcDbLine
 10
0.0
 20
0.0
 30
0.0
 11
-1.0
 21
-0.1666666666666666
 31
0.0
  0
LINE
  5
E3
330
DF
100
AcDbEntity
  8
0
  6
ByBlock
 62
     0
100
AcDbLine
 10
0.0
 20
0.0
 30
0.0
 11
-1.0
 21
0.0
 31
0.0
  0
ENDBLK
  5
E4
330
DF
100
AcDbEntity
  8
0
100
AcDbBlockEnd
  0
BLOCK
  5
E6
330
E5
100
AcDbEntity
  8
0
100
AcDbBlockBegin
  2
*D1
 70
     1
 10
0.0
 20
0.0
 30
0.0
  3
*D1
  1

  0
LINE
  5
E7
330
E5
100
AcDbEntity
  8
0
 62
     0
370
    -2
100
AcDbLine
 10
-105.5749563446446
 20
80.92384317995797
 30
0.0
 11
-101.4643003086593
 21
80.92384317995797
 31
0.0
  0
LINE
  5
E8
330
E5
100
AcDbEntity
  8
0
 62
     0
370
    -2
100
AcDbLine
 10
-105.5749563446446
 20
79.92384317995797
 30
0.0
 11
-103.178586022945
 21
79.92384317995797
 31
0.0
  0
LINE
  5
E9
330
E5
100
AcDbEntity
  8
0
 62
     0
370
    -2
100
AcDbLine
 10
-104.678586022945
 20
78.42384317995797
 30
0.0
 11
-104.678586022945
 21
76.92384317995797
 31
0.0
  0
LINE
  5
EA
330
E5
100
AcDbEntity
  8
0
 62
     0
370
    -2
100
AcDbLine
 10
-104.678586022945
 20
82.42384317995798
 30
0.0
 11
-104.678586022945
 21
83.92384317995796
 31
0.0
  0
INSERT
  5
EB
330
E5
100
AcDbEntity
  8
0
 62
     0
370
    -2
100
AcDbBlockReference
  2
_OPEN
 10
-104.678586022945
 20
79.92384317995797
 30
0.0
 41
1.5
 42
1.5
 43
1.5
 50
90.0
  0
INSERT
  5
EC
330
E5
100
AcDbEntity
  8
0
 62
     0
370
    -2
100
AcDbBlockReference
  2
_OPEN
 10
-104.678586022945
 20
80.92384317995797
 30
0.0
 41
1.5
 42
1.5
 43
1.5
 50
270.0
  0
MTEXT
  5
ED
330
E5
100
AcDbEntity
  8
0
 62
     0
100
AcDbMText
 10
-102.3214431658021
 20
82.92384317995795
 30
0.0
 40
3.0
 41
0.0
 71
     5
 72
     1
  1
\A1;1
  7
KANJI
 73
     1
 44
1.0
1001
ACAD
1000
MTEXTBEGIN
1070
    73
1070
     1
1070
    44
1040
1.0
1070
    74
1070
     0
1000
MTEXTEND
  0
POINT
  5
EE
330
E5
100
AcDbEntity
  8
DEFPOINTS
 62
     0
100
AcDbPoint
 10
-106.5749563446446
 20
80.92384317995797
 30
0.0
  0
POINT
  5
EF
330
E5
100
AcDbEntity
  8
DEFPOINTS
 62
     0
100
AcDbPoint
 10
-106.5749563446446
 20
79.92384317995797
 30
0.0
  0
POINT
  5
F0
330
E5
100
AcDbEntity
  8
DEFPOINTS
 62
     0
100
AcDbPoint
 10
-104.678586022945
 20
79.92384317995797
 30
0.0
  0
ENDBLK
  5
F1
330
E5
100
AcDbEntity
  8
0
100
AcDbBlockEnd
  0
BLOCK
  5
F3
330
F2
100
AcDbEntity
  8
0
100
AcDbBlockBegin
  2
*D2
 70
     1
 10
0.0
 20
0.0
 30
0.0
  3
*D2
  1

  0
LINE
  5
F4
330
F2
100
AcDbEntity
  8
0
 62
     0
370
    -2
100
AcDbLine
 10
-66.57495634464471
 20
78.92384317995797
 30
0.0
 11
-66.57495634464471
 21
60.80439188973977
 31
0.0
  0
LINE
  5
F5
330
F2
100
AcDbEntity
  8
0
 62
     0
370
    -2
100
AcDbLine
 10
-146.5749563446446
 20
78.92384317995797
 30
0.0
 11
-146.5749563446446
 21
60.80439188973977
 31
0.0
  0
LINE
  5
F6
330
F2
100
AcDbEntity
  8
0
 62
     0
370
    -2
100
AcDbLine
 10
-68.0749563446447
 20
62.30439188973978
 30
0.0
 11
-145.0749563446446
 21
62.30439188973978
 31
0.0
  0
INSERT
  5
F7
330
F2
100
AcDbEntity
  8
0
 62
     0
370
    -2
100
AcDbBlockReference
  2
_OPEN
 10
-66.57495634464471
 20
62.30439188973978
 30
0.0
 41
1.5
 42
1.5
 43
1.5
  0
INSERT
  5
F8
330
F2
100
AcDbEntity
  8
0
 62
     0
370
    -2
100
AcDbBlockReference
  2
_OPEN
 10
-146.5749563446446
 20
62.30439188973978
 30
0.0
 41
1.5
 42
1.5
 43
1.5
 50
180.0
  0
MTEXT
  5
F9
330
F2
100
AcDbEntity
  8
0
 62
     0
100
AcDbMText
 10
-106.5749563446446
 20
64.30439188973977
 30
0.0
 40
3.0
 41
0.0
 71
     5
 72
     1
  1
\A1;80
  7
KANJI
 73
     1
 44
1.0
1001
ACAD
1000
MTEXTBEGIN
1070
    73
1070
     1
1070
    44
1040
1.0
1070
    74
1070
     0
1000
MTEXTEND
  0
POINT
  5
FA
330
F2
100
AcDbEntity
  8
DEFPOINTS
 62
     0
100
AcDbPoint
 10
-66.57495634464471
 20
79.92384317995797
 30
0.0
  0
POINT
  5
FB
330
F2
100
AcDbEntity
  8
DEFPOINTS
 62
     0
100
AcDbPoint
 10
-146.5749563446446
 20
79.92384317995797
 30
0.0
  0
POINT
  5
FC
330
F2
100
AcDbEntity
  8
DEFPOINTS
 62
     0
100
AcDbPoint
 10
-146.5749563446446
 20
62.30439188973978
 30
0.0
  0
ENDBLK
  5
FD
330
F2
100
AcDbEntity
  8
0
100
AcDbBlockEnd
  0
BLOCK
  5
FF
330
FE
100
AcDbEntity
  8
0
100
AcDbBlockBegin
  2
*D3
 70
     1
 10
0.0
 20
0.0
 30
0.0
  3
*D3
  1

  0
LINE
  5
100
330
FE
100
AcDbEntity
  8
0
 62
     0
370
    -2
100
AcDbLine
 10
-136.5749563446446
 20
79.92384317995797
 30
0.0
 11
-136.5749563446446
 21
68.43415284320619
 31
0.0
  0
LINE
  5
101
330
FE
100
AcDbEntity
  8
0
 62
     0
370
    -2
100
AcDbLine
 10
-76.57495634464464
 20
79.92384317995797
 30
0.0
 11
-76.57495634464464
 21
68.43415284320619
 31
0.0
  0
LINE
  5
102
330
FE
100
AcDbEntity
  8
0
 62
     0
370
    -2
100
AcDbLine
 10
-135.0749563446446
 20
69.93415284320619
 30
0.0
 11
-78.07495634464465
 21
69.93415284320619
 31
0.0
  0
INSERT
  5
103
330
FE
100
AcDbEntity
  8
0
 62
     0
370
    -2
100
AcDbBlockReference
  2
_OPEN
 10
-136.5749563446446
 20
69.93415284320619
 30
0.0
 41
1.5
 42
1.5
 43
1.5
 50
180.0
  0
INSERT
  5
104
330
FE
100
AcDbEntity
  8
0
 62
     0
370
    -2
100
AcDbBlockReference
  2
_OPEN
 10
-76.57495634464464
 20
69.93415284320619
 30
0.0
 41
1.5
 42
1.5
 43
1.5
  0
MTEXT
  5
105
330
FE
100
AcDbEntity
  8
0
 62
     0
100
AcDbMText
 10
-106.5749563446446
 20
71.93415284320619
 30
0.0
 40
3.0
 41
0.0
 71
     5
 72
     1
  1
\A1;60
  7
KANJI
 73
     1
 44
1.0
1001
ACAD
1000
MTEXTBEGIN
1070
    73
1070
     1
1070
    44
1040
1.0
1070
    74
1070
     0
1000
MTEXTEND
  0
POINT
  5
106
330
FE
100
AcDbEntity
  8
DEFPOINTS
 62
     0
100
AcDbPoint
 10
-136.5749563446446
 20
80.92384317995797
 30
0.0
  0
POINT
  5
107
330
FE
100
AcDbEntity
  8
DEFPOINTS
 62
     0
100
AcDbPoint
 10
-76.57495634464464
 20
80.92384317995797
 30
0.0
  0
POINT
  5
108
330
FE
100
AcDbEntity
  8
DEFPOINTS
 62
     0
100
AcDbPoint
 10
-76.57495634464464
 20
69.93415284320619
 30
0.0
  0
ENDBLK
  5
109
330
FE
100
AcDbEntity
  8
0
100
AcDbBlockEnd
  0
BLOCK
  5
10B
330
10A
100
AcDbEntity
  8
0
100
AcDbBlockBegin
  2
*D4
 70
     1
 10
0.0
 20
0.0
 30
0.0
  3
*D4
  1

  0
LINE
  5
10C
330
10A
100
AcDbEntity
  8
0
 62
     0
370
    -2
100
AcDbLine
 10
-137.5749563446444
 20
129.9238431799577
 30
0.0
 11
-158.5119815009264
 21
129.9238431799577
 31
0.0
  0
LINE
  5
10D
330
10A
100
AcDbEntity
  8
0
 62
     0
370
    -2
100
AcDbLine
 10
-137.5749563446445
 20
79.92384317995777
 30
0.0
 11
-158.5119815009264
 21
79.92384317995777
 31
0.0
  0
LINE
  5
10E
330
10A
100
AcDbEntity
  8
0
 62
     0
370
    -2
100
AcDbLine
 10
-157.0119815009263
 20
128.4238431799577
 30
0.0
 11
-157.0119815009263
 21
81.42384317995777
 31
0.0
  0
INSERT
  5
10F
330
10A
100
AcDbEntity
  8
0
 62
     0
370
    -2
100
AcDbBlockReference
  2
_OPEN
 10
-157.0119815009263
 20
129.9238431799577
 30
0.0
 41
1.5
 42
1.5
 43
1.5
 50
90.0
  0
INSERT
  5
110
330
10A
100
AcDbEntity
  8
0
 62
     0
370
    -2
100
AcDbBlockReference
  2
_OPEN
 10
-157.0119815009263
 20
79.92384317995777
 30
0.0
 41
1.5
 42
1.5
 43
1.5
 50
270.0
  0
MTEXT
  5
111
330
10A
100
AcDbEntity
  8
0
 62
     0
100
AcDbMText
 10
-159.0119815009264
 20
104.9238431799577
 30
0.0
 40
3.0
 41
0.0
 71
     5
 72
     1
  1
\A1;50
  7
KANJI
 11
0.0000000000000001
 21
1.0
 31
0.0
 73
     1
 44
1.0
1001
ACAD
1000
MTEXTBEGIN
1070
    73
1070
     1
1070
    44
1040
1.0
1070
    74
1070
     0
1000
MTEXTEND
  0
POINT
  5
112
330
10A
100
AcDbEntity
  8
DEFPOINTS
 62
     0
100
AcDbPoint
 10
-136.5749563446444
 20
129.9238431799577
 30
0.0
  0
POINT
  5
113
330
10A
100
AcDbEntity
  8
DEFPOINTS
 62
     0
100
AcDbPoint
 10
-136.5749563446445
 20
79.92384317995777
 30
0.0
  0
POINT
  5
114
330
10A
100
AcDbEntity
  8
DEFPOINTS
 62
     0
100
AcDbPoint
 10
-157.0119815009263
 20
79.92384317995777
 30
0.0
  0
ENDBLK
  5
115
330
10A
100
AcDbEntity
  8
0
100
AcDbBlockEnd
  0
BLOCK
  5
117
330
116
100
AcDbEntity
  8
0
100
AcDbBlockBegin
  2
*D5
 70
     1
 10
0.0
 20
0.0
 30
0.0
  3
*D5
  1

  0
LINE
  5
118
330
116
100
AcDbEntity
  8
0
 62
     0
370
    -2
100
AcDbLine
 10
-65.57495634464465
 20
79.92384317995797
 30
0.0
 11
-56.320272880593
 21
79.92384317995797
 31
0.0
  0
LINE
  5
119
330
116
100
AcDbEntity
  8
0
 62
     0
370
    -2
100
AcDbLine
 10
-65.5749563446447
 20
82.92384317995797
 30
0.0
 11
-56.32027288059299
 21
82.92384317995797
 31
0.0
  0
LINE
  5
11A
330
116
100
AcDbEntity
  8
0
 62
     0
370
    -2
100
AcDbLine
 10
-57.820272880593
 20
78.42384317995797
 30
0.0
 11
-57.820272880593
 21
76.92384317995797
 31
0.0
  0
LINE
  5
11B
330
116
100
AcDbEntity
  8
0
 62
     0
370
    -2
100
AcDbLine
 10
-57.820272880593
 20
84.42384317995797
 30
0.0
 11
-57.820272880593
 21
85.92384317995797
 31
0.0
  0
LINE
  5
11C
330
116
100
AcDbEntity
  8
0
 62
     0
370
    -2
100
AcDbLine
 10
-57.820272880593
 20
79.92384317995797
 30
0.0
 11
-57.820272880593
 21
82.92384317995797
 31
0.0
  0
INSERT
  5
11D
330
116
100
AcDbEntity
  8
0
 62
     0
370
    -2
100
AcDbBlockReference
  2
_OPEN
 10
-57.820272880593
 20
79.92384317995797
 30
0.0
 41
1.5
 42
1.5
 43
1.5
 50
90.0
  0
INSERT
  5
11E
330
116
100
AcDbEntity
  8
0
 62
     0
370
    -2
100
AcDbBlockReference
  2
_OPEN
 10
-57.820272880593
 20
82.92384317995797
 30
0.0
 41
1.5
 42
1.5
 43
1.5
 50
270.0
  0
MTEXT
  5
11F
330
116
100
AcDbEntity
  8
0
 62
     0
100
AcDbMText
 10
-59.82027288059301
 20
81.42384317995796
 30
0.0
 40
3.0
 41
0.0
 71
     5
 72
     1
  1
\A1;3
  7
KANJI
 11
0.0000000000000001
 21
1.0
 31
0.0
 73
     1
 44
1.0
1001
ACAD
1000
MTEXTBEGIN
1070
    73
1070
     1
1070
    44
1040
1.0
1070
    74
1070
     0
1000
MTEXTEND
  0
POINT
  5
120
330
116
100
AcDbEntity
  8
DEFPOINTS
 62
     0
100
AcDbPoint
 10
-66.57495634464464
 20
79.92384317995797
 30
0.0
  0
POINT
  5
121
330
116
100
AcDbEntity
  8
DEFPOINTS
 62
     0
100
AcDbPoint
 10
-66.57495634464471
 20
82.92384317995797
 30
0.0
  0
POINT
  5
122
330
116
100
AcDbEntity
  8
DEFPOINTS
 62
     0
100
AcDbPoint
 10
-57.820272880593
 20
82.92384317995797
 30
0.0
  0
ENDBLK
  5
123
330
116
100
AcDbEntity
  8
0
100
AcDbBlockEnd
  0
BLOCK
  5
125
330
124
100
AcDbEntity
  8
0
100
AcDbBlockBegin
  2
*D6
 70
     1
 10
0.0
 20
0.0
 30
0.0
  3
*D6
  1

  0
LINE
  5
126
330
124
100
AcDbEntity
  8
0
 62
     0
370
    -2
100
AcDbLine
 10
-75.57495634464453
 20
240.8079094437324
 30
0.0
 11
-50.54669599041335
 21
240.8079094437323
 31
0.0
  0
LINE
  5
127
330
124
100
AcDbEntity
  8
0
 62
     0
370
    -2
100
AcDbLine
 10
-75.57495634464453
 20
208.8079094437323
 30
0.0
 11
-50.54669599041336
 21
208.8079094437323
 31
0.0
  0
LINE
  5
128
330
124
100
AcDbEntity
  8
0
 62
     0
370
    -2
100
AcDbLine
 10
-52.04669599041335
 20
239.3079094437323
 30
0.0
 11
-52.04669599041335
 21
210.3079094437323
 31
0.0
  0
INSERT
  5
129
330
124
100
AcDbEntity
  8
0
 62
     0
370
    -2
100
AcDbBlockReference
  2
_OPEN
 10
-52.04669599041334
 20
240.8079094437323
 30
0.0
 41
1.5
 42
1.5
 43
1.5
 50
90.0
  0
INSERT
  5
12A
330
124
100
AcDbEntity
  8
0
 62
     0
370
    -2
100
AcDbBlockReference
  2
_OPEN
 10
-52.04669599041335
 20
208.8079094437323
 30
0.0
 41
1.5
 42
1.5
 43
1.5
 50
270.0
  0
MTEXT
  5
12B
330
124
100
AcDbEntity
  8
0
 62
     0
100
AcDbMText
 10
-54.04669599041339
 20
224.8079094437323
 30
0.0
 40
3.0
 41
0.0
 71
     5
 72
     1
  1
\A1;32
  7
KANJI
 11
0.0000000000000001
 21
1.0
 31
0.0
 73
     1
 44
1.0
1001
ACAD
1000
MTEXTBEGIN
1070
    73
1070
     1
1070
    44
1040
1.0
1070
    74
1070
     0
1000
MTEXTEND
  0
POINT
  5
12C
330
124
100
AcDbEntity
  8
DEFPOINTS
 62
     0
100
AcDbPoint
 10
-76.57495634464453
 20
240.8079094437324
 30
0.0
  0
POINT
  5
12D
330
124
100
AcDbEntity
  8
DEFPOINTS
 62
     0
100
AcDbPoint
 10
-76.57495634464453
 20
208.8079094437323
 30
0.0
  0
POINT
  5
12E
330
124
100
AcDbEntity
  8
DEFPOINTS
 62
     0
100
AcDbPoint
 10
-52.04669599041335
 20
208.8079094437323
 30
0.0
  0
ENDBLK
  5
12F
330
124
100
AcDbEntity
  8
0
100
AcDbBlockEnd
  0
BLOCK
  5
131
330
130
100
AcDbEntity
  8
0
100
AcDbBlockBegin
  2
*D7
 70
     1
 10
0.0
 20
0.0
 30
0.0
  3
*D7
  1

  0
LINE
  5
132
330
130
100
AcDbEntity
  8
0
 62
     0
370
    -2
100
AcDbLine
 10
-136.0749563446445
 20
210.3079094437323
 30
0.0
 11
-150.1916412050987
 21
210.3079094437323
 31
0.0
  0
LINE
  5
133
330
130
100
AcDbEntity
  8
0
 62
     0
370
    -2
100
AcDbLine
 10
-136.0749563446446
 20
239.3079094437323
 30
0.0
 11
-150.1916412050987
 21
239.3079094437323
 31
0.0
  0
LINE
  5
134
330
130
100
AcDbEntity
  8
0
 62
     0
370
    -2
100
AcDbLine
 10
-148.6916412050987
 20
211.8079094437324
 30
0.0
 11
-148.6916412050987
 21
237.8079094437323
 31
0.0
  0
INSERT
  5
135
330
130
100
AcDbEntity
  8
0
 62
     0
370
    -2
100
AcDbBlockReference
  2
_OPEN
 10
-148.6916412050987
 20
210.3079094437323
 30
0.0
 41
1.5
 42
1.5
 43
1.5
 50
270.0
  0
INSERT
  5
136
330
130
100
AcDbEntity
  8
0
 62
     0
370
    -2
100
AcDbBlockReference
  2
_OPEN
 10
-148.6916412050987
 20
239.3079094437323
 30
0.0
 41
1.5
 42
1.5
 43
1.5
 50
90.0
  0
MTEXT
  5
137
330
130
100
AcDbEntity
  8
0
 62
     0
100
AcDbMText
 10
-150.6916412050988
 20
224.8079094437323
 30
0.0
 40
3.0
 41
0.0
 71
     5
 72
     1
  1
\A1;29
  7
KANJI
 11
0.0000000000000001
 21
1.0
 31
0.0
 73
     1
 44
1.0
1001
ACAD
1000
MTEXTBEGIN
1070
    73
1070
     1
1070
    44
1040
1.0
1070
    74
1070
     0
1000
MTEXTEND
  0
POINT
  5
138
330
130
100
AcDbEntity
  8
DEFPOINTS
 62
     0
100
AcDbPoint
 10
-135.0749563446445
 20
210.3079094437323
 30
0.0
  0
POINT
  5
139
330
130
100
AcDbEntity
  8
DEFPOINTS
 62
     0
100
AcDbPoint
 10
-135.0749563446446
 20
239.3079094437323
 30
0.0
  0
POINT
  5
13A
330
130
100
AcDbEntity
  8
DEFPOINTS
 62
     0
100
AcDbPoint
 10
-148.6916412050987
 20
239.3079094437323
 30
0.0
  0
ENDBLK
  5
13B
330
130
100
AcDbEntity
  8
0
100
AcDbBlockEnd
  0
BLOCK
  5
13D
330
13C
100
AcDbEntity
  8
0
100
AcDbBlockBegin
  2
*D8
 70
     1
 10
0.0
 20
0.0
 30
0.0
  3
*D8
  1

  0
LINE
  5
13E
330
13C
100
AcDbEntity
  8
0
 62
     0
370
    -2
100
AcDbLine
 10
-141.5749563446444
 20
221.8079094437324
 30
0.0
 11
-141.5749563446444
 21
195.6551583233088
 31
0.0
  0
LINE
  5
13F
330
13C
100
AcDbEntity
  8
0
 62
     0
370
    -2
100
AcDbLine
 10
-71.57495634464464
 20
221.8079094437324
 30
0.0
 11
-71.57495634464464
 21
195.6551583233088
 31
0.0
  0
LINE
  5
140
330
13C
100
AcDbEntity
  8
0
 62
     0
370
    -2
100
AcDbLine
 10
-140.0749563446445
 20
197.1551583233088
 30
0.0
 11
-73.07495634464465
 21
197.1551583233088
 31
0.0
  0
INSERT
  5
141
330
13C
100
AcDbEntity
  8
0
 62
     0
370
    -2
100
AcDbBlockReference
  2
_OPEN
 10
-141.5749563446444
 20
197.1551583233088
 30
0.0
 41
1.5
 42
1.5
 43
1.5
 50
180.0
  0
INSERT
  5
142
330
13C
100
AcDbEntity
  8
0
 62
     0
370
    -2
100
AcDbBlockReference
  2
_OPEN
 10
-71.57495634464464
 20
197.1551583233088
 30
0.0
 41
1.5
 42
1.5
 43
1.5
  0
MTEXT
  5
143
330
13C
100
AcDbEntity
  8
0
 62
     0
100
AcDbMText
 10
-106.5749563446445
 20
199.1551583233088
 30
0.0
 40
3.0
 41
0.0
 71
     5
 72
     1
  1
\A1;70
  7
KANJI
 73
     1
 44
1.0
1001
ACAD
1000
MTEXTBEGIN
1070
    73
1070
     1
1070
    44
1040
1.0
1070
    74
1070
     0
1000
MTEXTEND
  0
POINT
  5
144
330
13C
100
AcDbEntity
  8
DEFPOINTS
 62
     0
100
AcDbPoint
 10
-141.5749563446444
 20
222.8079094437323
 30
0.0
  0
POINT
  5
145
330
13C
100
AcDbEntity
  8
DEFPOINTS
 62
     0
100
AcDbPoint
 10
-71.57495634464464
 20
222.8079094437323
 30
0.0
  0
POINT
  5
146
330
13C
100
AcDbEntity
  8
DEFPOINTS
 62
     0
100
AcDbPoint
 10
-71.57495634464464
 20
197.1551583233088
 30
0.0
  0
ENDBLK
  5
147
330
13C
100
AcDbEntity
  8
0
100
AcDbBlockEnd
  0
BLOCK
  5
149
330
148
100
AcDbEntity
  8
0
100
AcDbBlockBegin
  2
*D9
 70
     1
 10
0.0
 20
0.0
 30
0.0
  3
*D9
  1

  0
LINE
  5
14A
330
148
100
AcDbEntity
  8
0
 62
     0
370
    -2
100
AcDbLine
 10
-43.072590853978
 20
153.7348773327193
 30
0.0
 11
-43.072590853978
 21
161.7348773327193
 31
0.0
  0
LINE
  5
14B
330
148
100
AcDbEntity
  8
0
 62
     0
370
    -2
100
AcDbLine
 10
-53.072590853978
 20
153.7348773327193
 30
0.0
 11
-53.072590853978
 21
161.7348773327193
 31
0.0
  0
LINE
  5
14C
330
148
100
AcDbEntity
  8
0
 62
     0
370
    -2
100
AcDbLine
 10
-44.572590853978
 20
160.2348773327193
 30
0.0
 11
-51.572590853978
 21
160.2348773327193
 31
0.0
  0
INSERT
  5
14D
330
148
100
AcDbEntity
  8
0
 62
     0
370
    -2
100
AcDbBlockReference
  2
_OPEN
 10
-43.072590853978
 20
160.2348773327193
 30
0.0
 41
1.5
 42
1.5
 43
1.5
  0
INSERT
  5
14E
330
148
100
AcDbEntity
  8
0
 62
     0
370
    -2
100
AcDbBlockReference
  2
_OPEN
 10
-53.072590853978
 20
160.2348773327193
 30
0.0
 41
1.5
 42
1.5
 43
1.5
 50
180.0
  0
MTEXT
  5
14F
330
148
100
AcDbEntity
  8
0
 62
     0
100
AcDbMText
 10
-48.072590853978
 20
162.2348773327193
 30
0.0
 40
3.0
 41
0.0
 71
     5
 72
     1
  1
\A1;10
  7
KANJI
 73
     1
 44
1.0
1001
ACAD
1000
MTEXTBEGIN
1070
    73
1070
     1
1070
    44
1040
1.0
1070
    74
1070
     0
1000
MTEXTEND
  0
POINT
  5
150
330
148
100
AcDbEntity
  8
DEFPOINTS
 62
     0
100
AcDbPoint
 10
-43.072590853978
 20
152.7348773327193
 30
0.0
  0
POINT
  5
151
330
148
100
AcDbEntity
  8
DEFPOINTS
 62
     0
100
AcDbPoint
 10
-53.072590853978
 20
152.7348773327193
 30
0.0
  0
POINT
  5
152
330
148
100
AcDbEntity
  8
DEFPOINTS
 62
     0
100
AcDbPoint
 10
-53.072590853978
 20
160.2348773327193
 30
0.0
  0
ENDBLK
  5
153
330
148
100
AcDbEntity
  8
0
100
AcDbBlockEnd
  0
BLOCK
  5
155
330
154
100
AcDbEntity
  8
0
100
AcDbBlockBegin
  2
*D10
 70
     1
 10
0.0
 20
0.0
 30
0.0
  3
*D10
  1

  0
LINE
  5
156
330
154
100
AcDbEntity
  8
0
 62
     0
370
    -2
100
AcDbLine
 10
-67.57495634464459
 20
224.8079094437323
 30
0.0
 11
-58.7440551652071
 21
224.8079094437323
 31
0.0
  0
LINE
  5
157
330
154
100
AcDbEntity
  8
0
 62
     0
370
    -2
100
AcDbLine
 10
-67.57495634464465
 20
239.3079094437323
 30
0.0
 11
-58.7440551652071
 21
239.3079094437323
 31
0.0
  0
LINE
  5
158
330
154
100
AcDbEntity
  8
0
 62
     0
370
    -2
100
AcDbLine
 10
-60.2440551652071
 20
226.3079094437323
 30
0.0
 11
-60.2440551652071
 21
237.8079094437323
 31
0.0
  0
INSERT
  5
159
330
154
100
AcDbEntity
  8
0
 62
     0
370
    -2
100
AcDbBlockReference
  2
_OPEN
 10
-60.2440551652071
 20
224.8079094437323
 30
0.0
 41
1.5
 42
1.5
 43
1.5
 50
270.0
  0
INSERT
  5
15A
330
154
100
AcDbEntity
  8
0
 62
     0
370
    -2
100
AcDbBlockReference
  2
_OPEN
 10
-60.2440551652071
 20
239.3079094437323
 30
0.0
 41
1.5
 42
1.5
 43
1.5
 50
90.0
  0
MTEXT
  5
15B
330
154
100
AcDbEntity
  8
0
 62
     0
100
AcDbMText
 10
-62.24405516520714
 20
232.0579094437323
 30
0.0
 40
3.0
 41
0.0
 71
     5
 72
     1
  1
\A1;14.5
  7
KANJI
 11
0.0000000000000001
 21
1.0
 31
0.0
 73
     1
 44
1.0
1001
ACAD
1000
MTEXTBEGIN
1070
    73
1070
     1
1070
    44
1040
1.0
1070
    74
1070
     0
1000
MTEXTEND
  0
POINT
  5
15C
330
154
100
AcDbEntity
  8
DEFPOINTS
 62
     0
100
AcDbPoint
 10
-68.57495634464459
 20
224.8079094437323
 30
0.0
  0
POINT
  5
15D
330
154
100
AcDbEntity
  8
DEFPOINTS
 62
     0
100
AcDbPoint
 10
-68.57495634464465
 20
239.3079094437323
 30
0.0
  0
POINT
  5
15E
330
154
100
AcDbEntity
  8
DEFPOINTS
 62
     0
100
AcDbPoint
 10
-60.2440551652071
 20
239.3079094437323
 30
0.0
  0
ENDBLK
  5
15F
330
154
100
AcDbEntity
  8
0
100
AcDbBlockEnd
  0
BLOCK
  5
161
330
160
100
AcDbEntity
  8
0
100
AcDbBlockBegin
  2
*D11
 70
     1
 10
0.0
 20
0.0
 30
0.0
  3
*D11
  1

  0
LINE
  5
162
330
160
100
AcDbEntity
  8
0
 62
     0
370
    -2
100
AcDbLine
 10
-136.5749563446445
 20
217.5579094437323
 30
0.0
 11
-108.3784130492975
 21
217.5579094437323
 31
0.0
  0
LINE
  5
163
330
160
100
AcDbEntity
  8
0
 62
     0
370
    -2
100
AcDbLine
 10
-136.5749563446445
 20
232.0579094437324
 30
0.0
 11
-108.3784130492974
 21
232.0579094437324
 31
0.0
  0
LINE
  5
164
330
160
100
AcDbEntity
  8
0
 62
     0
370
    -2
100
AcDbLine
 10
-109.8784130492975
 20
219.0579094437323
 30
0.0
 11
-109.8784130492975
 21
230.5579094437324
 31
0.0
  0
INSERT
  5
165
330
160
100
AcDbEntity
  8
0
 62
     0
370
    -2
100
AcDbBlockReference
  2
_OPEN
 10
-109.8784130492975
 20
217.5579094437323
 30
0.0
 41
1.5
 42
1.5
 43
1.5
 50
270.0
  0
INSERT
  5
166
330
160
100
AcDbEntity
  8
0
 62
     0
370
    -2
100
AcDbBlockReference
  2
_OPEN
 10
-109.8784130492975
 20
232.0579094437324
 30
0.0
 41
1.5
 42
1.5
 43
1.5
 50
90.0
  0
MTEXT
  5
167
330
160
100
AcDbEntity
  8
0
 62
     0
100
AcDbMText
 10
-111.8784130492975
 20
224.8079094437323
 30
0.0
 40
3.0
 41
0.0
 71
     5
 72
     1
  1
\A1;14.5
  7
KANJI
 11
0.0000000000000001
 21
1.0
 31
0.0
 73
     1
 44
1.0
1001
ACAD
1000
MTEXTBEGIN
1070
    73
1070
     1
1070
    44
1040
1.0
1070
    74
1070
     0
1000
MTEXTEND
  0
POINT
  5
168
330
160
100
AcDbEntity
  8
DEFPOINTS
 62
     0
100
AcDbPoint
 10
-137.5749563446445
 20
217.5579094437323
 30
0.0
  0
POINT
  5
169
330
160
100
AcDbEntity
  8
DEFPOINTS
 62
     0
100
AcDbPoint
 10
-137.5749563446445
 20
232.0579094437324
 30
0.0
  0
POINT
  5
16A
330
160
100
AcDbEntity
  8
DEFPOINTS
 62
     0
100
AcDbPoint
 10
-109.8784130492975
 20
232.0579094437324
 30
0.0
  0
ENDBLK
  5
16B
330
160
100
AcDbEntity
  8
0
100
AcDbBlockEnd
  0
BLOCK
  5
246
330
23B
100
AcDbEntity
  8
0
100
AcDbBlockBegin
  2
*D13
 70
     1
 10
0.0
 20
0.0
 30
0.0
  3
*D13
  1

  0
LINE
  5
2C2
330
23B
100
AcDbEntity
  8
0
 62
     0
370
    -2
100
AcDbLine
 10
200.1247692626446
 20
80.40190769193655
 30
0.0
 11
204.2354252986299
 21
80.40190769193655
 31
0.0
  0
LINE
  5
2C3
330
23B
100
AcDbEntity
  8
0
 62
     0
370
    -2
100
AcDbLine
 10
200.1247692626446
 20
79.40190769193654
 30
0.0
 11
202.5211395843442
 21
79.40190769193654
 31
0.0
  0
LINE
  5
2C4
330
23B
100
AcDbEntity
  8
0
 62
     0
370
    -2
100
AcDbLine
 10
201.0211395843442
 20
77.90190769193654
 30
0.0
 11
201.0211395843442
 21
76.40190769193655
 31
0.0
  0
LINE
  5
2C5
330
23B
100
AcDbEntity
  8
0
 62
     0
370
    -2
100
AcDbLine
 10
201.0211395843442
 20
81.90190769193653
 30
0.0
 11
201.0211395843442
 21
83.40190769193654
 31
0.0
  0
INSERT
  5
2C6
330
23B
100
AcDbEntity
  8
0
 62
     0
370
    -2
100
AcDbBlockReference
  2
_OPEN
 10
201.0211395843442
 20
79.40190769193654
 30
0.0
 41
1.5
 42
1.5
 43
1.5
 50
90.0
  0
INSERT
  5
2C7
330
23B
100
AcDbEntity
  8
0
 62
     0
370
    -2
100
AcDbBlockReference
  2
_OPEN
 10
201.0211395843442
 20
80.40190769193655
 30
0.0
 41
1.5
 42
1.5
 43
1.5
 50
270.0
  0
MTEXT
  5
2C8
330
23B
100
AcDbEntity
  8
0
 62
     0
100
AcDbMText
 10
203.3782824414871
 20
82.40190769193658
 30
0.0
 40
3.0
 41
0.0
 71
     5
 72
     1
  1
\A1;1
  7
KANJI
 73
     1
 44
1.0
1001
ACAD
1000
MTEXTBEGIN
1070
    73
1070
     1
1070
    44
1040
1.0
1070
    74
1070
     0
1000
MTEXTEND
  0
POINT
  5
2C9
330
23B
100
AcDbEntity
  8
DEFPOINTS
 62
     0
100
AcDbPoint
 10
199.1247692626446
 20
80.40190769193655
 30
0.0
  0
POINT
  5
2CA
330
23B
100
AcDbEntity
  8
DEFPOINTS
 62
     0
100
AcDbPoint
 10
199.1247692626446
 20
79.40190769193654
 30
0.0
  0
POINT
  5
2CB
330
23B
100
AcDbEntity
  8
DEFPOINTS
 62
     0
100
AcDbPoint
 10
201.0211395843442
 20
79.40190769193654
 30
0.0
  0
ENDBLK
  5
247
330
23B
100
AcDbEntity
  8
0
100
AcDbBlockEnd
  0
BLOCK
  5
252
330
248
100
AcDbEntity
  8
0
100
AcDbBlockBegin
  2
*D14
 70
     1
 10
0.0
 20
0.0
 30
0.0
  3
*D14
  1

  0
LINE
  5
2CC
330
248
100
AcDbEntity
  8
0
 62
     0
370
    -2
100
AcDbLine
 10
239.1247692626445
 20
78.40190769193654
 30
0.0
 11
239.1247692626445
 21
60.28245640171835
 31
0.0
  0
LINE
  5
2CD
330
248
100
AcDbEntity
  8
0
 62
     0
370
    -2
100
AcDbLine
 10
159.1247692626446
 20
78.40190769193654
 30
0.0
 11
159.1247692626446
 21
60.28245640171835
 31
0.0
  0
LINE
  5
2CE
330
248
100
AcDbEntity
  8
0
 62
     0
370
    -2
100
AcDbLine
 10
237.6247692626445
 20
61.78245640171835
 30
0.0
 11
160.6247692626445
 21
61.78245640171835
 31
0.0
  0
INSERT
  5
2CF
330
248
100
AcDbEntity
  8
0
 62
     0
370
    -2
100
AcDbBlockReference
  2
_OPEN
 10
239.1247692626445
 20
61.78245640171835
 30
0.0
 41
1.5
 42
1.5
 43
1.5
  0
INSERT
  5
2D0
330
248
100
AcDbEntity
  8
0
 62
     0
370
    -2
100
AcDbBlockReference
  2
_OPEN
 10
159.1247692626446
 20
61.78245640171835
 30
0.0
 41
1.5
 42
1.5
 43
1.5
 50
180.0
  0
MTEXT
  5
2D1
330
248
100
AcDbEntity
  8
0
 62
     0
100
AcDbMText
 10
199.1247692626445
 20
63.78245640171835
 30
0.0
 40
3.0
 41
0.0
 71
     5
 72
     1
  1
\A1;80
  7
KANJI
 73
     1
 44
1.0
1001
ACAD
1000
MTEXTBEGIN
1070
    73
1070
     1
1070
    44
1040
1.0
1070
    74
1070
     0
1000
MTEXTEND
  0
POINT
  5
2D2
330
248
100
AcDbEntity
  8
DEFPOINTS
 62
     0
100
AcDbPoint
 10
239.1247692626445
 20
79.40190769193654
 30
0.0
  0
POINT
  5
2D3
330
248
100
AcDbEntity
  8
DEFPOINTS
 62
     0
100
AcDbPoint
 10
159.1247692626446
 20
79.40190769193654
 30
0.0
  0
POINT
  5
2D4
330
248
100
AcDbEntity
  8
DEFPOINTS
 62
     0
100
AcDbPoint
 10
159.1247692626446
 20
61.78245640171835
 30
0.0
  0
ENDBLK
  5
253
330
248
100
AcDbEntity
  8
0
100
AcDbBlockEnd
  0
BLOCK
  5
25E
330
254
100
AcDbEntity
  8
0
100
AcDbBlockBegin
  2
*D15
 70
     1
 10
0.0
 20
0.0
 30
0.0
  3
*D15
  1

  0
LINE
  5
2D5
330
254
100
AcDbEntity
  8
0
 62
     0
370
    -2
100
AcDbLine
 10
169.1247692626446
 20
79.40190769193654
 30
0.0
 11
169.1247692626446
 21
67.91221735518476
 31
0.0
  0
LINE
  5
2D6
330
254
100
AcDbEntity
  8
0
 62
     0
370
    -2
100
AcDbLine
 10
229.1247692626446
 20
79.40190769193654
 30
0.0
 11
229.1247692626446
 21
67.91221735518476
 31
0.0
  0
LINE
  5
2D7
330
254
100
AcDbEntity
  8
0
 62
     0
370
    -2
100
AcDbLine
 10
170.6247692626446
 20
69.41221735518476
 30
0.0
 11
227.6247692626446
 21
69.41221735518476
 31
0.0
  0
INSERT
  5
2D8
330
254
100
AcDbEntity
  8
0
 62
     0
370
    -2
100
AcDbBlockReference
  2
_OPEN
 10
169.1247692626446
 20
69.41221735518476
 30
0.0
 41
1.5
 42
1.5
 43
1.5
 50
180.0
  0
INSERT
  5
2D9
330
254
100
AcDbEntity
  8
0
 62
     0
370
    -2
100
AcDbBlockReference
  2
_OPEN
 10
229.1247692626446
 20
69.41221735518476
 30
0.0
 41
1.5
 42
1.5
 43
1.5
  0
MTEXT
  5
2DA
330
254
100
AcDbEntity
  8
0
 62
     0
100
AcDbMText
 10
199.1247692626446
 20
71.41221735518477
 30
0.0
 40
3.0
 41
0.0
 71
     5
 72
     1
  1
\A1;60
  7
KANJI
 73
     1
 44
1.0
1001
ACAD
1000
MTEXTBEGIN
1070
    73
1070
     1
1070
    44
1040
1.0
1070
    74
1070
     0
1000
MTEXTEND
  0
POINT
  5
2DB
330
254
100
AcDbEntity
  8
DEFPOINTS
 62
     0
100
AcDbPoint
 10
169.1247692626446
 20
80.40190769193655
 30
0.0
  0
POINT
  5
2DC
330
254
100
AcDbEntity
  8
DEFPOINTS
 62
     0
100
AcDbPoint
 10
229.1247692626446
 20
80.40190769193655
 30
0.0
  0
POINT
  5
2DD
330
254
100
AcDbEntity
  8
DEFPOINTS
 62
     0
100
AcDbPoint
 10
229.1247692626446
 20
69.41221735518476
 30
0.0
  0
ENDBLK
  5
25F
330
254
100
AcDbEntity
  8
0
100
AcDbBlockEnd
  0
BLOCK
  5
26A
330
260
100
AcDbEntity
  8
0
100
AcDbBlockBegin
  2
*D16
 70
     1
 10
0.0
 20
0.0
 30
0.0
  3
*D16
  1

  0
LINE
  5
2DE
330
260
100
AcDbEntity
  8
0
 62
     0
370
    -2
100
AcDbLine
 10
168.1247692626447
 20
129.4019076919363
 30
0.0
 11
147.1877441063628
 21
129.4019076919363
 31
0.0
  0
LINE
  5
2DF
330
260
100
AcDbEntity
  8
0
 62
     0
370
    -2
100
AcDbLine
 10
168.1247692626447
 20
79.40190769193634
 30
0.0
 11
147.1877441063628
 21
79.40190769193636
 31
0.0
  0
LINE
  5
2E0
330
260
100
AcDbEntity
  8
0
 62
     0
370
    -2
100
AcDbLine
 10
148.6877441063628
 20
127.9019076919363
 30
0.0
 11
148.6877441063628
 21
80.90190769193636
 31
0.0
  0
INSERT
  5
2E1
330
260
100
AcDbEntity
  8
0
 62
     0
370
    -2
100
AcDbBlockReference
  2
_OPEN
 10
148.6877441063628
 20
129.4019076919363
 30
0.0
 41
1.5
 42
1.5
 43
1.5
 50
90.0
  0
INSERT
  5
2E2
330
260
100
AcDbEntity
  8
0
 62
     0
370
    -2
100
AcDbBlockReference
  2
_OPEN
 10
148.6877441063628
 20
79.40190769193636
 30
0.0
 41
1.5
 42
1.5
 43
1.5
 50
270.0
  0
MTEXT
  5
2E3
330
260
100
AcDbEntity
  8
0
 62
     0
100
AcDbMText
 10
146.6877441063628
 20
104.4019076919363
 30
0.0
 40
3.0
 41
0.0
 71
     5
 72
     1
  1
\A1;50
  7
KANJI
 11
0.0000000000000001
 21
1.0
 31
0.0
 73
     1
 44
1.0
1001
ACAD
1000
MTEXTBEGIN
1070
    73
1070
     1
1070
    44
1040
1.0
1070
    74
1070
     0
1000
MTEXTEND
  0
POINT
  5
2E4
330
260
100
AcDbEntity
  8
DEFPOINTS
 62
     0
100
AcDbPoint
 10
169.1247692626447
 20
129.4019076919363
 30
0.0
  0
POINT
  5
2E5
330
260
100
AcDbEntity
  8
DEFPOINTS
 62
     0
100
AcDbPoint
 10
169.1247692626447
 20
79.40190769193634
 30
0.0
  0
POINT
  5
2E6
330
260
100
AcDbEntity
  8
DEFPOINTS
 62
     0
100
AcDbPoint
 10
148.6877441063628
 20
79.40190769193636
 30
0.0
  0
ENDBLK
  5
26B
330
260
100
AcDbEntity
  8
0
100
AcDbBlockEnd
  0
BLOCK
  5
278
330
26C
100
AcDbEntity
  8
0
100
AcDbBlockBegin
  2
*D17
 70
     1
 10
0.0
 20
0.0
 30
0.0
  3
*D17
  1

  0
LINE
  5
2E7
330
26C
100
AcDbEntity
  8
0
 62
     0
370
    -2
100
AcDbLine
 10
240.1247692626446
 20
79.40190769193654
 30
0.0
 11
249.3794527266962
 21
79.40190769193654
 31
0.0
  0
LINE
  5
2E8
330
26C
100
AcDbEntity
  8
0
 62
     0
370
    -2
100
AcDbLine
 10
240.1247692626445
 20
82.40190769193654
 30
0.0
 11
249.3794527266962
 21
82.40190769193654
 31
0.0
  0
LINE
  5
2E9
330
26C
100
AcDbEntity
  8
0
 62
     0
370
    -2
100
AcDbLine
 10
247.8794527266962
 20
77.90190769193654
 30
0.0
 11
247.8794527266962
 21
76.40190769193655
 31
0.0
  0
LINE
  5
2EA
330
26C
100
AcDbEntity
  8
0
 62
     0
370
    -2
100
AcDbLine
 10
247.8794527266962
 20
83.90190769193655
 30
0.0
 11
247.8794527266962
 21
85.40190769193655
 31
0.0
  0
LINE
  5
2EB
330
26C
100
AcDbEntity
  8
0
 62
     0
370
    -2
100
AcDbLine
 10
247.8794527266962
 20
79.40190769193654
 30
0.0
 11
247.8794527266962
 21
82.40190769193654
 31
0.0
  0
INSERT
  5
2EC
330
26C
100
AcDbEntity
  8
0
 62
     0
370
    -2
100
AcDbBlockReference
  2
_OPEN
 10
247.8794527266962
 20
79.40190769193654
 30
0.0
 41
1.5
 42
1.5
 43
1.5
 50
90.0
  0
INSERT
  5
2ED
330
26C
100
AcDbEntity
  8
0
 62
     0
370
    -2
100
AcDbBlockReference
  2
_OPEN
 10
247.8794527266962
 20
82.40190769193654
 30
0.0
 41
1.5
 42
1.5
 43
1.5
 50
270.0
  0
MTEXT
  5
2EE
330
26C
100
AcDbEntity
  8
0
 62
     0
100
AcDbMText
 10
245.8794527266962
 20
80.90190769193659
 30
0.0
 40
3.0
 41
0.0
 71
     5
 72
     1
  1
\A1;3
  7
KANJI
 11
0.0000000000000001
 21
1.0
 31
0.0
 73
     1
 44
1.0
1001
ACAD
1000
MTEXTBEGIN
1070
    73
1070
     1
1070
    44
1040
1.0
1070
    74
1070
     0
1000
MTEXTEND
  0
POINT
  5
2EF
330
26C
100
AcDbEntity
  8
DEFPOINTS
 62
     0
100
AcDbPoint
 10
239.1247692626446
 20
79.40190769193654
 30
0.0
  0
POINT
  5
2F0
330
26C
100
AcDbEntity
  8
DEFPOINTS
 62
     0
100
AcDbPoint
 10
239.1247692626445
 20
82.40190769193654
 30
0.0
  0
POINT
  5
2F1
330
26C
100
AcDbEntity
  8
DEFPOINTS
 62
     0
100
AcDbPoint
 10
247.8794527266962
 20
82.40190769193654
 30
0.0
  0
ENDBLK
  5
279
330
26C
100
AcDbEntity
  8
0
100
AcDbBlockEnd
  0
BLOCK
  5
284
330
27A
100
AcDbEntity
  8
0
100
AcDbBlockBegin
  2
*D18
 70
     1
 10
0.0
 20
0.0
 30
0.0
  3
*D18
  1

  0
LINE
  5
2F2
330
27A
100
AcDbEntity
  8
0
 62
     0
370
    -2
100
AcDbLine
 10
230.1247692626447
 20
240.2859739557109
 30
0.0
 11
255.1530296168759
 21
240.2859739557109
 31
0.0
  0
LINE
  5
2F3
330
27A
100
AcDbEntity
  8
0
 62
     0
370
    -2
100
AcDbLine
 10
230.1247692626447
 20
208.2859739557109
 30
0.0
 11
255.1530296168759
 21
208.2859739557109
 31
0.0
  0
LINE
  5
2F4
330
27A
100
AcDbEntity
  8
0
 62
     0
370
    -2
100
AcDbLine
 10
253.6530296168759
 20
238.7859739557109
 30
0.0
 11
253.6530296168759
 21
209.7859739557109
 31
0.0
  0
INSERT
  5
2F5
330
27A
100
AcDbEntity
  8
0
 62
     0
370
    -2
100
AcDbBlockReference
  2
_OPEN
 10
253.6530296168759
 20
240.2859739557109
 30
0.0
 41
1.5
 42
1.5
 43
1.5
 50
90.0
  0
INSERT
  5
2F6
330
27A
100
AcDbEntity
  8
0
 62
     0
370
    -2
100
AcDbBlockReference
  2
_OPEN
 10
253.6530296168759
 20
208.2859739557109
 30
0.0
 41
1.5
 42
1.5
 43
1.5
 50
270.0
  0
MTEXT
  5
2F7
330
27A
100
AcDbEntity
  8
0
 62
     0
100
AcDbMText
 10
251.6530296168758
 20
224.2859739557109
 30
0.0
 40
3.0
 41
0.0
 71
     5
 72
     1
  1
\A1;32
  7
KANJI
 11
0.0000000000000001
 21
1.0
 31
0.0
 73
     1
 44
1.0
1001
ACAD
1000
MTEXTBEGIN
1070
    73
1070
     1
1070
    44
1040
1.0
1070
    74
1070
     0
1000
MTEXTEND
  0
POINT
  5
2F8
330
27A
100
AcDbEntity
  8
DEFPOINTS
 62
     0
100
AcDbPoint
 10
229.1247692626447
 20
240.2859739557109
 30
0.0
  0
POINT
  5
2F9
330
27A
100
AcDbEntity
  8
DEFPOINTS
 62
     0
100
AcDbPoint
 10
229.1247692626447
 20
208.2859739557109
 30
0.0
  0
POINT
  5
2FA
330
27A
100
AcDbEntity
  8
DEFPOINTS
 62
     0
100
AcDbPoint
 10
253.6530296168759
 20
208.2859739557109
 30
0.0
  0
ENDBLK
  5
285
330
27A
100
AcDbEntity
  8
0
100
AcDbBlockEnd
  0
BLOCK
  5
290
330
286
100
AcDbEntity
  8
0
100
AcDbBlockBegin
  2
*D19
 70
     1
 10
0.0
 20
0.0
 30
0.0
  3
*D19
  1

  0
LINE
  5
2FB
330
286
100
AcDbEntity
  8
0
 62
     0
370
    -2
100
AcDbLine
 10
169.6247692626447
 20
209.7859739557109
 30
0.0
 11
155.5080844021905
 21
209.7859739557109
 31
0.0
  0
LINE
  5
2FC
330
286
100
AcDbEntity
  8
0
 62
     0
370
    -2
100
AcDbLine
 10
169.6247692626446
 20
238.7859739557109
 30
0.0
 11
155.5080844021905
 21
238.7859739557109
 31
0.0
  0
LINE
  5
2FD
330
286
100
AcDbEntity
  8
0
 62
     0
370
    -2
100
AcDbLine
 10
157.0080844021905
 20
211.2859739557109
 30
0.0
 11
157.0080844021905
 21
237.2859739557108
 31
0.0
  0
INSERT
  5
2FE
330
286
100
AcDbEntity
  8
0
 62
     0
370
    -2
100
AcDbBlockReference
  2
_OPEN
 10
157.0080844021905
 20
209.7859739557109
 30
0.0
 41
1.5
 42
1.5
 43
1.5
 50
270.0
  0
INSERT
  5
2FF
330
286
100
AcDbEntity
  8
0
 62
     0
370
    -2
100
AcDbBlockReference
  2
_OPEN
 10
157.0080844021905
 20
238.7859739557109
 30
0.0
 41
1.5
 42
1.5
 43
1.5
 50
90.0
  0
MTEXT
  5
300
330
286
100
AcDbEntity
  8
0
 62
     0
100
AcDbMText
 10
155.0080844021904
 20
224.2859739557109
 30
0.0
 40
3.0
 41
0.0
 71
     5
 72
     1
  1
\A1;29
  7
KANJI
 11
0.0000000000000001
 21
1.0
 31
0.0
 73
     1
 44
1.0
1001
ACAD
1000
MTEXTBEGIN
1070
    73
1070
     1
1070
    44
1040
1.0
1070
    74
1070
     0
1000
MTEXTEND
  0
POINT
  5
301
330
286
100
AcDbEntity
  8
DEFPOINTS
 62
     0
100
AcDbPoint
 10
170.6247692626447
 20
209.7859739557109
 30
0.0
  0
POINT
  5
302
330
286
100
AcDbEntity
  8
DEFPOINTS
 62
     0
100
AcDbPoint
 10
170.6247692626446
 20
238.7859739557109
 30
0.0
  0
POINT
  5
303
330
286
100
AcDbEntity
  8
DEFPOINTS
 62
     0
100
AcDbPoint
 10
157.0080844021905
 20
238.7859739557109
 30
0.0
  0
ENDBLK
  5
291
330
286
100
AcDbEntity
  8
0
100
AcDbBlockEnd
  0
BLOCK
  5
29C
330
292
100
AcDbEntity
  8
0
100
AcDbBlockBegin
  2
*D20
 70
     1
 10
0.0
 20
0.0
 30
0.0
  3
*D20
  1

  0
LINE
  5
304
330
292
100
AcDbEntity
  8
0
 62
     0
370
    -2
100
AcDbLine
 10
164.1247692626447
 20
221.2859739557109
 30
0.0
 11
164.1247692626447
 21
195.1332228352874
 31
0.0
  0
LINE
  5
305
330
292
100
AcDbEntity
  8
0
 62
     0
370
    -2
100
AcDbLine
 10
234.1247692626446
 20
221.2859739557109
 30
0.0
 11
234.1247692626446
 21
195.1332228352874
 31
0.0
  0
LINE
  5
306
330
292
100
AcDbEntity
  8
0
 62
     0
370
    -2
100
AcDbLine
 10
165.6247692626447
 20
196.6332228352873
 30
0.0
 11
232.6247692626446
 21
196.6332228352873
 31
0.0
  0
INSERT
  5
307
330
292
100
AcDbEntity
  8
0
 62
     0
370
    -2
100
AcDbBlockReference
  2
_OPEN
 10
164.1247692626447
 20
196.6332228352873
 30
0.0
 41
1.5
 42
1.5
 43
1.5
 50
180.0
  0
INSERT
  5
308
330
292
100
AcDbEntity
  8
0
 62
     0
370
    -2
100
AcDbBlockReference
  2
_OPEN
 10
234.1247692626446
 20
196.6332228352873
 30
0.0
 41
1.5
 42
1.5
 43
1.5
  0
MTEXT
  5
309
330
292
100
AcDbEntity
  8
0
 62
     0
100
AcDbMText
 10
199.1247692626446
 20
198.6332228352873
 30
0.0
 40
3.0
 41
0.0
 71
     5
 72
     1
  1
\A1;70
  7
KANJI
 73
     1
 44
1.0
1001
ACAD
1000
MTEXTBEGIN
1070
    73
1070
     1
1070
    44
1040
1.0
1070
    74
1070
     0
1000
MTEXTEND
  0
POINT
  5
30A
330
292
100
AcDbEntity
  8
DEFPOINTS
 62
     0
100
AcDbPoint
 10
164.1247692626447
 20
222.2859739557109
 30
0.0
  0
POINT
  5
30B
330
292
100
AcDbEntity
  8
DEFPOINTS
 62
     0
100
AcDbPoint
 10
234.1247692626446
 20
222.2859739557109
 30
0.0
  0
POINT
  5
30C
330
292
100
AcDbEntity
  8
DEFPOINTS
 62
     0
100
AcDbPoint
 10
234.1247692626446
 20
196.6332228352873
 30
0.0
  0
ENDBLK
  5
29D
330
292
100
AcDbEntity
  8
0
100
AcDbBlockEnd
  0
BLOCK
  5
2A8
330
29E
100
AcDbEntity
  8
0
100
AcDbBlockBegin
  2
*D21
 70
     1
 10
0.0
 20
0.0
 30
0.0
  3
*D21
  1

  0
LINE
  5
30D
330
29E
100
AcDbEntity
  8
0
 62
     0
370
    -2
100
AcDbLine
 10
262.6271347533112
 20
153.2129418446978
 30
0.0
 11
262.6271347533112
 21
161.2129418446979
 31
0.0
  0
LINE
  5
30E
330
29E
100
AcDbEntity
  8
0
 62
     0
370
    -2
100
AcDbLine
 10
252.6271347533112
 20
153.2129418446978
 30
0.0
 11
252.6271347533112
 21
161.2129418446979
 31
0.0
  0
LINE
  5
30F
330
29E
100
AcDbEntity
  8
0
 62
     0
370
    -2
100
AcDbLine
 10
261.1271347533112
 20
159.7129418446979
 30
0.0
 11
254.1271347533112
 21
159.7129418446979
 31
0.0
  0
INSERT
  5
310
330
29E
100
AcDbEntity
  8
0
 62
     0
370
    -2
100
AcDbBlockReference
  2
_OPEN
 10
262.6271347533112
 20
159.7129418446979
 30
0.0
 41
1.5
 42
1.5
 43
1.5
  0
INSERT
  5
311
330
29E
100
AcDbEntity
  8
0
 62
     0
370
    -2
100
AcDbBlockReference
  2
_OPEN
 10
252.6271347533112
 20
159.7129418446979
 30
0.0
 41
1.5
 42
1.5
 43
1.5
 50
180.0
  0
MTEXT
  5
312
330
29E
100
AcDbEntity
  8
0
 62
     0
100
AcDbMText
 10
257.6271347533112
 20
161.7129418446979
 30
0.0
 40
3.0
 41
0.0
 71
     5
 72
     1
  1
\A1;10
  7
KANJI
 73
     1
 44
1.0
1001
ACAD
1000
MTEXTBEGIN
1070
    73
1070
     1
1070
    44
1040
1.0
1070
    74
1070
     0
1000
MTEXTEND
  0
POINT
  5
313
330
29E
100
AcDbEntity
  8
DEFPOINTS
 62
     0
100
AcDbPoint
 10
262.6271347533112
 20
152.2129418446978
 30
0.0
  0
POINT
  5
314
330
29E
100
AcDbEntity
  8
DEFPOINTS
 62
     0
100
AcDbPoint
 10
252.6271347533112
 20
152.2129418446978
 30
0.0
  0
POINT
  5
315
330
29E
100
AcDbEntity
  8
DEFPOINTS
 62
     0
100
AcDbPoint
 10
252.6271347533112
 20
159.7129418446979
 30
0.0
  0
ENDBLK
  5
2A9
330
29E
100
AcDbEntity
  8
0
100
AcDbBlockEnd
  0
BLOCK
  5
2B4
330
2AA
100
AcDbEntity
  8
0
100
AcDbBlockBegin
  2
*D22
 70
     1
 10
0.0
 20
0.0
 30
0.0
  3
*D22
  1

  0
LINE
  5
316
330
2AA
100
AcDbEntity
  8
0
 62
     0
370
    -2
100
AcDbLine
 10
238.1247692626446
 20
224.2859739557109
 30
0.0
 11
246.9556704420821
 21
224.2859739557109
 31
0.0
  0
LINE
  5
317
330
2AA
100
AcDbEntity
  8
0
 62
     0
370
    -2
100
AcDbLine
 10
238.1247692626446
 20
238.7859739557109
 30
0.0
 11
246.9556704420821
 21
238.7859739557109
 31
0.0
  0
LINE
  5
318
330
2AA
100
AcDbEntity
  8
0
 62
     0
370
    -2
100
AcDbLine
 10
245.4556704420821
 20
225.7859739557109
 30
0.0
 11
245.4556704420821
 21
237.2859739557109
 31
0.0
  0
INSERT
  5
319
330
2AA
100
AcDbEntity
  8
0
 62
     0
370
    -2
100
AcDbBlockReference
  2
_OPEN
 10
245.4556704420821
 20
224.2859739557109
 30
0.0
 41
1.5
 42
1.5
 43
1.5
 50
270.0
  0
INSERT
  5
31A
330
2AA
100
AcDbEntity
  8
0
 62
     0
370
    -2
100
AcDbBlockReference
  2
_OPEN
 10
245.4556704420821
 20
238.7859739557109
 30
0.0
 41
1.5
 42
1.5
 43
1.5
 50
90.0
  0
MTEXT
  5
31B
330
2AA
100
AcDbEntity
  8
0
 62
     0
100
AcDbMText
 10
243.455670442082
 20
231.5359739557109
 30
0.0
 40
3.0
 41
0.0
 71
     5
 72
     1
  1
\A1;14.5
  7
KANJI
 11
0.0000000000000001
 21
1.0
 31
0.0
 73
     1
 44
1.0
1001
ACAD
1000
MTEXTBEGIN
1070
    73
1070
     1
1070
    44
1040
1.0
1070
    74
1070
     0
1000
MTEXTEND
  0
POINT
  5
31C
330
2AA
100
AcDbEntity
  8
DEFPOINTS
 62
     0
100
AcDbPoint
 10
237.1247692626446
 20
224.2859739557109
 30
0.0
  0
POINT
  5
31D
330
2AA
100
AcDbEntity
  8
DEFPOINTS
 62
     0
100
AcDbPoint
 10
237.1247692626446
 20
238.7859739557109
 30
0.0
  0
POINT
  5
31E
330
2AA
100
AcDbEntity
  8
DEFPOINTS
 62
     0
100
AcDbPoint
 10
245.4556704420821
 20
238.7859739557109
 30
0.0
  0
ENDBLK
  5
2B5
330
2AA
100
AcDbEntity
  8
0
100
AcDbBlockEnd
  0
BLOCK
  5
2C0
330
2B6
100
AcDbEntity
  8
0
100
AcDbBlockBegin
  2
*D23
 70
     1
 10
0.0
 20
0.0
 30
0.0
  3
*D23
  1

  0
LINE
  5
31F
330
2B6
100
AcDbEntity
  8
0
 62
     0
370
    -2
100
AcDbLine
 10
169.1247692626447
 20
217.0359739557109
 30
0.0
 11
197.3213125579917
 21
217.0359739557108
 31
0.0
  0
LINE
  5
320
330
2B6
100
AcDbEntity
  8
0
 62
     0
370
    -2
100
AcDbLine
 10
169.1247692626447
 20
231.535973955711
 30
0.0
 11
197.3213125579917
 21
231.5359739557109
 31
0.0
  0
LINE
  5
321
330
2B6
100
AcDbEntity
  8
0
 62
     0
370
    -2
100
AcDbLine
 10
195.8213125579917
 20
218.5359739557108
 30
0.0
 11
195.8213125579917
 21
230.035973955711
 31
0.0
  0
INSERT
  5
322
330
2B6
100
AcDbEntity
  8
0
 62
     0
370
    -2
100
AcDbBlockReference
  2
_OPEN
 10
195.8213125579917
 20
217.0359739557108
 30
0.0
 41
1.5
 42
1.5
 43
1.5
 50
270.0
  0
INSERT
  5
323
330
2B6
100
AcDbEntity
  8
0
 62
     0
370
    -2
100
AcDbBlockReference
  2
_OPEN
 10
195.8213125579917
 20
231.5359739557109
 30
0.0
 41
1.5
 42
1.5
 43
1.5
 50
90.0
  0
MTEXT
  5
324
330
2B6
100
AcDbEntity
  8
0
 62
     0
100
AcDbMText
 10
193.8213125579917
 20
224.2859739557109
 30
0.0
 40
3.0
 41
0.0
 71
     5
 72
     1
  1
\A1;14.5
  7
KANJI
 11
0.0000000000000001
 21
1.0
 31
0.0
 73
     1
 44
1.0
1001
ACAD
1000
MTEXTBEGIN
1070
    73
1070
     1
1070
    44
1040
1.0
1070
    74
1070
     0
1000
MTEXTEND
  0
POINT
  5
325
330
2B6
100
AcDbEntity
  8
DEFPOINTS
 62
     0
100
AcDbPoint
 10
168.1247692626447
 20
217.0359739557109
 30
0.0
  0
POINT
  5
326
330
2B6
100
AcDbEntity
  8
DEFPOINTS
 62
     0
100
AcDbPoint
 10
168.1247692626447
 20
231.535973955711
 30
0.0
  0
POINT
  5
327
330
2B6
100
AcDbEntity
  8
DEFPOINTS
 62
     0
100
AcDbPoint
 10
195.8213125579917
 20
231.5359739557109
 30
0.0
  0
ENDBLK
  5
2C1
330
2B6
100
AcDbEntity
  8
0
100
AcDbBlockEnd
  0
ENDSEC
  0
SECTION
  2
ENTITIES
  0
LINE
  5
51
330
22
100
AcDbEntity
  8
_0-1_
  6
Continuous
 62
     3
100
AcDbLine
 10
109.9137829426253
 20
10.0820392438058
 30
0.0
 11
109.5910479758758
 21
10.0820392438058
 31
0.0
  0
LINE
  5
52
330
22
100
AcDbEntity
  8
_0-1_
  6
Continuous
 62
     3
100
AcDbLine
 10
109.5910479758758
 20
10.0820392438058
 30
0.0
 11
109.5910479758758
 21
280.3556131669723
 31
0.0
  0
LINE
  5
53
330
22
100
AcDbEntity
  8
_0-1_
  6
Continuous
 62
     3
100
AcDbLine
 10
289.7482074636524
 20
280.3556131669723
 30
0.0
 11
289.7482074636524
 21
10.0820392438058
 31
0.0
  0
LINE
  5
54
330
22
100
AcDbEntity
  8
_0-1_
  6
Continuous
 62
     3
100
AcDbLine
 10
109.5910479758758
 20
280.3556131669723
 30
0.0
 11
289.7482074636524
 21
280.3556131669723
 31
0.0
  0
LINE
  5
55
330
22
100
AcDbEntity
  8
_0-1_
  6
Continuous
 62
     3
100
AcDbLine
 10
289.7482074636524
 20
10.0820392438058
 30
0.0
 11
109.5910479758758
 21
10.0820392438058
 31
0.0
  0
LINE
  5
56
330
22
100
AcDbEntity
  8
_0-1_
  6
Continuous
 62
     3
100
AcDbLine
 10
289.7482074636524
 20
25.08203924380581
 30
0.0
 11
109.5910479758758
 21
25.08203924380581
 31
0.0
  0
LINE
  5
57
330
22
100
AcDbEntity
  8
_0-1_
  6
Continuous
 62
     3
100
AcDbLine
 10
169.5910479758758
 20
10.0820392438058
 30
0.0
 11
169.5910479758758
 21
25.08203924380581
 31
0.0
  0
LINE
  5
58
330
22
100
AcDbEntity
  8
_0-1_
  6
Continuous
 62
     3
100
AcDbLine
 10
229.5910479758759
 20
10.0820392438058
 30
0.0
 11
229.5910479758759
 21
25.08203924380581
 31
0.0
  0
TEXT
  5
59
330
22
100
AcDbEntity
  8
_0-1_
 62
     7
100
AcDbText
 10
111.5363389395928
 20
21.57720765544398
 30
0.0
 40
2.0
  1
ＴＩＴＬＥ
100
AcDbText
  0
TEXT
  5
5A
330
22
100
AcDbEntity
  8
_0-1_
 62
     7
100
AcDbText
 10
171.4616892036262
 20
21.32542046946065
 30
0.0
 40
2.0
  1
ＭＯＤＥＬ
100
AcDbText
  0
TEXT
  5
5B
330
22
100
AcDbEntity
  8
_0-1_
 62
     7
100
AcDbText
 10
236.2458655108208
 20
15.19894081377248
 30
0.0
 40
4.0
  1
日伸制御機工株式会社
100
AcDbText
  0
TEXT
  5
5C
330
22
100
AcDbEntity
  8
_0-1_
 62
     7
100
AcDbText
 10
183.5469613259668
 20
14.8425414364641
 30
0.0
 40
4.0
  1
SNB-502-N
100
AcDbText
  0
TEXT
  5
5D
330
22
100
AcDbEntity
  8
_0-1_
 62
     7
100
AcDbText
 10
110.7235432373859
 20
15.21483776441503
 30
0.0
 40
4.0
  1
半導体用スパークケンチャー
100
AcDbText
  0
LINE
  5
1DA
330
22
100
AcDbEntity
  8
0
100
AcDbLine
 10
169.1247692626446
 20
237.2859739557109
 30
0.0
 11
169.1247692626447
 21
208.2859739557109
 31
0.0
  0
LINE
  5
1DB
330
22
100
AcDbEntity
  8
0
100
AcDbLine
 10
229.1247692626447
 20
240.2859739557109
 30
0.0
 11
229.1247692626446
 21
211.2859739557109
 31
0.0
  0
LINE
  5
1DC
330
22
100
AcDbEntity
  8
0
100
AcDbLine
 10
172.1247692626446
 20
240.2859739557109
 30
0.0
 11
229.1247692626447
 21
240.2859739557109
 31
0.0
  0
LINE
  5
1DD
330
22
100
AcDbEntity
  8
0
100
AcDbLine
 10
169.1247692626447
 20
208.2859739557109
 30
0.0
 11
226.1247692626446
 21
208.2859739557109
 31
0.0
  0
LINE
  5
1DE
330
22
100
AcDbEntity
  8
0
100
AcDbLine
 10
172.1247692626446
 20
240.2859739557109
 30
0.0
 11
169.1247692626446
 21
237.2859739557109
 31
0.0
  0
LINE
  5
1DF
330
22
100
AcDbEntity
  8
0
100
AcDbLine
 10
226.1247692626446
 20
208.2859739557109
 30
0.0
 11
229.1247692626446
 21
211.2859739557109
 31
0.0
  0
LINE
  5
1E0
330
22
100
AcDbEntity
  8
0
100
AcDbLine
 10
170.6247692626446
 20
236.6646536121512
 30
0.0
 11
170.6247692626447
 21
209.7859739557109
 31
0.0
  0
LINE
  5
1E1
330
22
100
AcDbEntity
  8
0
100
AcDbLine
 10
172.7460896062043
 20
238.7859739557109
 30
0.0
 11
227.6247692626446
 21
238.7859739557109
 31
0.0
  0
LINE
  5
1E2
330
22
100
AcDbEntity
  8
0
100
AcDbLine
 10
170.6247692626446
 20
209.7859739557109
 30
0.0
 11
225.503448919085
 21
209.7859739557109
 31
0.0
  0
LINE
  5
1E3
330
22
100
AcDbEntity
  8
0
100
AcDbLine
 10
227.6247692626446
 20
238.7859739557109
 30
0.0
 11
227.6247692626446
 21
211.9072942992704
 31
0.0
  0
LINE
  5
1E4
330
22
100
AcDbEntity
  8
0
100
AcDbLine
 10
172.7460896062043
 20
238.7859739557109
 30
0.0
 11
170.6247692626447
 21
236.6646536121512
 31
0.0
  0
LINE
  5
1E5
330
22
100
AcDbEntity
  8
0
100
AcDbLine
 10
225.503448919085
 20
209.7859739557109
 30
0.0
 11
227.6247692626447
 21
211.9072942992705
 31
0.0
  0
LINE
  5
1E6
330
22
100
AcDbEntity
  8
0
100
AcDbLine
 10
229.1247692626446
 20
238.7859739557109
 30
0.0
 11
237.1247692626447
 21
238.7859739557109
 31
0.0
  0
LINE
  5
1E7
330
22
100
AcDbEntity
  8
0
100
AcDbLine
 10
229.1247692626446
 20
224.2859739557109
 30
0.0
 11
237.1247692626446
 21
224.2859739557109
 31
0.0
  0
LINE
  5
1E8
330
22
100
AcDbEntity
  8
0
100
AcDbLine
 10
239.1247692626447
 20
236.7859739557109
 30
0.0
 11
239.1247692626446
 21
226.2859739557109
 31
0.0
  0
LINE
  5
1E9
330
22
100
AcDbEntity
  8
0
100
AcDbLine
 10
237.1247692626447
 20
238.7859739557109
 30
0.0
 11
239.1247692626447
 21
236.7859739557109
 31
0.0
  0
LINE
  5
1EA
330
22
100
AcDbEntity
  8
0
100
AcDbLine
 10
237.1247692626446
 20
224.2859739557109
 30
0.0
 11
239.1247692626446
 21
226.2859739557109
 31
0.0
  0
CIRCLE
  5
1EB
330
22
100
AcDbEntity
  8
0
100
AcDbCircle
 10
234.1247692626447
 20
231.5359739557109
 30
0.0
 40
2.25
  0
LINE
  5
1EC
330
22
100
AcDbEntity
  8
0
  6
CENTER
 48
0.7
100
AcDbLine
 10
238.1247692626446
 20
231.5359739557109
 30
0.0
 11
230.1247692626446
 21
231.535973955711
 31
0.0
  0
LINE
  5
1ED
330
22
100
AcDbEntity
  8
0
  6
CENTER
100
AcDbLine
 10
234.1247692626447
 20
236.7859739557109
 30
0.0
 11
234.1247692626446
 21
226.2859739557109
 31
0.0
  0
LINE
  5
1EE
330
22
100
AcDbEntity
  8
0
  6
CENTER
100
AcDbLine
 10
164.1247692626446
 20
211.7859739557109
 30
0.0
 11
164.1247692626447
 21
222.2859739557109
 31
0.0
  0
CIRCLE
  5
1EF
330
22
100
AcDbEntity
  8
0
100
AcDbCircle
 10
164.1247692626446
 20
217.0359739557109
 30
0.0
 40
2.25
  0
LINE
  5
1F0
330
22
100
AcDbEntity
  8
0
100
AcDbLine
 10
159.1247692626446
 20
211.7859739557109
 30
0.0
 11
159.1247692626447
 21
222.2859739557109
 31
0.0
  0
LINE
  5
1F1
330
22
100
AcDbEntity
  8
0
  6
CENTER
 48
0.7
100
AcDbLine
 10
160.1247692626447
 20
217.0359739557109
 30
0.0
 11
168.1247692626447
 21
217.0359739557109
 31
0.0
  0
LINE
  5
1F2
330
22
100
AcDbEntity
  8
0
100
AcDbLine
 10
169.1247692626447
 20
224.2859739557109
 30
0.0
 11
161.1247692626447
 21
224.2859739557109
 31
0.0
  0
LINE
  5
1F3
330
22
100
AcDbEntity
  8
0
100
AcDbLine
 10
161.1247692626447
 20
224.2859739557109
 30
0.0
 11
159.1247692626447
 21
222.2859739557109
 31
0.0
  0
LINE
  5
1F4
330
22
100
AcDbEntity
  8
0
100
AcDbLine
 10
169.1247692626447
 20
209.7859739557109
 30
0.0
 11
161.1247692626446
 21
209.7859739557109
 31
0.0
  0
LINE
  5
1F5
330
22
100
AcDbEntity
  8
0
100
AcDbLine
 10
161.1247692626446
 20
209.7859739557109
 30
0.0
 11
159.1247692626446
 21
211.7859739557109
 31
0.0
  0
CIRCLE
  5
1F6
330
22
100
AcDbEntity
  8
0
100
AcDbCircle
 10
225.6247692626446
 20
224.2859739557109
 30
0.0
 40
1.5
  0
CIRCLE
  5
1F7
330
22
100
AcDbEntity
  8
0
100
AcDbCircle
 10
172.6247692626446
 20
224.2859739557109
 30
0.0
 40
1.5
  0
LINE
  5
1F8
330
22
100
AcDbEntity
  8
0
100
AcDbLine
 10
159.1247692626446
 20
82.40190769193654
 30
0.0
 11
159.1247692626446
 21
79.40190769193654
 31
0.0
  0
LINE
  5
1F9
330
22
100
AcDbEntity
  8
0
100
AcDbLine
 10
159.1247692626446
 20
79.40190769193654
 30
0.0
 11
239.1247692626445
 21
79.40190769193654
 31
0.0
  0
LINE
  5
1FA
330
22
100
AcDbEntity
  8
0
100
AcDbLine
 10
239.1247692626446
 20
82.40190769193654
 30
0.0
 11
239.1247692626446
 21
79.40190769193654
 31
0.0
  0
LINE
  5
1FB
330
22
100
AcDbEntity
  8
0
100
AcDbLine
 10
169.1247692626447
 20
129.4019076919363
 30
0.0
 11
169.1247692626447
 21
80.40190769193634
 31
0.0
  0
LINE
  5
1FC
330
22
100
AcDbEntity
  8
0
100
AcDbLine
 10
229.1247692626446
 20
129.4019076919363
 30
0.0
 11
229.1247692626446
 21
80.40190769193634
 31
0.0
  0
LINE
  5
1FD
330
22
100
AcDbEntity
  8
0
100
AcDbLine
 10
169.1247692626447
 20
129.4019076919363
 30
0.0
 11
229.1247692626446
 21
129.4019076919363
 31
0.0
  0
LINE
  5
1FE
330
22
100
AcDbEntity
  8
0
100
AcDbLine
 10
159.1247692626446
 20
82.40190769193654
 30
0.0
 11
169.1247692626447
 21
82.40190769193654
 31
0.0
  0
LINE
  5
1FF
330
22
100
AcDbEntity
  8
0
100
AcDbLine
 10
169.1247692626446
 20
80.40190769193655
 30
0.0
 11
229.1247692626446
 21
80.40190769193655
 31
0.0
  0
LINE
  5
200
330
22
100
AcDbEntity
  8
0
100
AcDbLine
 10
229.1247692626446
 20
82.40190769193654
 30
0.0
 11
239.1247692626445
 21
82.40190769193654
 31
0.0
  0
LINE
  5
201
330
22
100
AcDbEntity
  8
0
100
AcDbLine
 10
226.1247692626446
 20
129.4019076919363
 30
0.0
 11
226.1247692626446
 21
80.40190769193635
 31
0.0
  0
LINE
  5
202
330
22
100
AcDbEntity
  8
0
100
AcDbLine
 10
227.1512718226972
 20
129.4019076919363
 30
0.0
 11
227.1512718226972
 21
142.2129418446978
 31
0.0
  0
LINE
  5
203
330
22
100
AcDbEntity
  8
0
100
AcDbLine
 10
234.6512718226971
 20
149.7129418446978
 30
0.0
 11
252.6271347533112
 21
149.7129418446978
 31
0.0
  0
LINE
  5
204
330
22
100
AcDbEntity
  8
0
100
AcDbLine
 10
224.1512718226971
 20
129.4019076919363
 30
0.0
 11
224.1512718226971
 21
142.7129418446978
 31
0.0
  0
LINE
  5
205
330
22
100
AcDbEntity
  8
0
100
AcDbLine
 10
234.1512718226971
 20
152.7129418446979
 30
0.0
 11
252.6271347533112
 21
152.7129418446978
 31
0.0
  0
LINE
  5
206
330
22
100
AcDbEntity
  8
0
100
AcDbLine
 10
252.6271347533112
 20
149.7129418446978
 30
0.0
 11
252.6271347533112
 21
152.7129418446978
 31
0.0
  0
LINE
  5
207
330
22
100
AcDbEntity
  8
0
100
AcDbLine
 10
262.6271347533112
 20
150.2129418446978
 30
0.0
 11
262.6271347533113
 21
152.2129418446978
 31
0.0
  0
LINE
  5
208
330
22
100
AcDbEntity
  8
0
100
AcDbLine
 10
262.6271347533112
 20
151.2129418446978
 30
0.0
 11
252.6271347533112
 21
151.2129418446978
 31
0.0
  0
LINE
  5
209
330
22
100
AcDbEntity
  8
0
100
AcDbLine
 10
262.6271347533112
 20
152.2129418446978
 30
0.0
 11
252.6271347533112
 21
152.2129418446978
 31
0.0
  0
LINE
  5
20A
330
22
100
AcDbEntity
  8
0
100
AcDbLine
 10
262.6271347533112
 20
150.2129418446978
 30
0.0
 11
252.6271347533112
 21
150.2129418446978
 31
0.0
  0
ARC
  5
20B
330
22
100
AcDbEntity
  8
0
100
AcDbCircle
 10
234.1512718226971
 20
142.7129418446979
 30
0.0
 40
10.0
100
AcDbArc
 50
90.0
 51
180.0
  0
ARC
  5
20C
330
22
100
AcDbEntity
  8
0
100
AcDbCircle
 10
234.6512718226971
 20
142.2129418446978
 30
0.0
 40
7.5
100
AcDbArc
 50
90.0
 51
180.0
  0
LINE
  5
20D
330
22
100
AcDbEntity
  8
0
100
AcDbLine
 10
217.1512718226972
 20
129.4019076919363
 30
0.0
 11
217.151271822697
 21
144.7129418446978
 31
0.0
  0
LINE
  5
20E
330
22
100
AcDbEntity
  8
0
100
AcDbLine
 10
232.151271822697
 20
159.7129418446979
 30
0.0
 11
252.6271347533112
 21
159.7129418446979
 31
0.0
  0
ARC
  5
20F
330
22
100
AcDbEntity
  8
0
100
AcDbCircle
 10
232.151271822697
 20
144.7129418446979
 30
0.0
 40
15.0
100
AcDbArc
 50
90.0
 51
180.0000000000004
  0
LINE
  5
210
330
22
100
AcDbEntity
  8
0
100
AcDbLine
 10
252.6271347533108
 20
159.712941844698
 30
0.0
 11
251.2069471726718
 21
160.1457173339455
 31
0.0
  0
LINE
  5
211
330
22
100
AcDbEntity
  8
0
100
AcDbLine
 10
252.6271347533108
 20
159.7129418446978
 30
0.0
 11
251.2069471726718
 21
159.2801663554502
 31
0.0
  0
LINE
  5
212
330
22
100
AcDbEntity
  8
0
100
AcDbLine
 10
252.6271347533112
 20
153.9850165818179
 30
0.0
 11
252.6271347533112
 21
164.5160404063168
 31
0.0
  0
DIMENSION
  5
213
330
22
100
AcDbEntity
  8
0
100
AcDbDimension
  2
*D13
 10
201.0211395843442
 20
79.40190769193654
 30
0.0
 11
203.3782824414871
 21
82.40190769193658
 31
0.0
 70
    32
 71
     5
  3
MYCADR13
100
AcDbAlignedDimension
 13
199.1247692626446
 23
80.40190769193655
 33
0.0
 14
199.1247692626446
 24
79.40190769193654
 34
0.0
 50
90.0
100
AcDbRotatedDimension
1001
ACAD
1000
DSTYLE
1002
{
1070
   340
1005
16F
1070
   172
1070
     0
1070
    73
1070
     1
1070
    77
1070
     2
1070
    40
1040
1.0
1070
   280
1070
     3
1070
   147
1040
0.5
1002
}
  0
DIMENSION
  5
214
330
22
100
AcDbEntity
  8
0
100
AcDbDimension
  2
*D14
 10
159.1247692626446
 20
61.78245640171835
 30
0.0
 11
199.1247692626445
 21
63.78245640171835
 31
0.0
 70
    32
  1
80
 71
     5
 42
79.99999999999994
  3
MYCADR13
100
AcDbAlignedDimension
 13
239.1247692626445
 23
79.40190769193654
 33
0.0
 14
159.1247692626446
 24
79.40190769193654
 34
0.0
100
AcDbRotatedDimension
1001
ACAD
1000
DSTYLE
1002
{
1070
   340
1005
16F
1070
    47
1040
0.2
1070
    71
1070
     1
1070
    48
1040
0.200000001
1070
    40
1040
1.0
1070
   147
1040
0.5
1002
}
  0
DIMENSION
  5
215
330
22
100
AcDbEntity
  8
0
100
AcDbDimension
  2
*D15
 10
229.1247692626446
 20
69.41221735518476
 30
0.0
 11
199.1247692626446
 21
71.41221735518477
 31
0.0
 70
    32
  1
60
 71
     5
 42
59.99999999999994
  3
MYCADR13
100
AcDbAlignedDimension
 13
169.1247692626446
 23
80.40190769193655
 33
0.0
 14
229.1247692626446
 24
80.40190769193655
 34
0.0
100
AcDbRotatedDimension
1001
ACAD
1000
DSTYLE
1002
{
1070
   340
1005
16F
1070
    47
1040
0.5
1070
    71
1070
     1
1070
    48
1040
0.500000001
1070
    40
1040
1.0
1070
   147
1040
0.5
1002
}
  0
LINE
  5
216
330
22
100
AcDbEntity
  8
0
100
AcDbLine
 10
169.1247692626446
 20
80.40190769193653
 30
0.0
 11
169.1247692626446
 21
79.40190769193654
 31
0.0
  0
DIMENSION
  5
217
330
22
100
AcDbEntity
  8
0
100
AcDbDimension
  2
*D16
 10
148.6877441063628
 20
79.40190769193636
 30
0.0
 11
146.6877441063628
 21
104.4019076919363
 31
0.0
 70
    32
  1
50
 71
     5
 42
49.99999999999999
  3
MYCADR13
100
AcDbAlignedDimension
 13
169.1247692626447
 23
129.4019076919363
 33
0.0
 14
169.1247692626447
 24
79.40190769193634
 34
0.0
 50
90.0
100
AcDbRotatedDimension
1001
ACAD
1000
DSTYLE
1002
{
1070
   340
1005
16F
1070
    47
1040
1.0
1070
    71
1070
     1
1070
    48
1040
1.000000001
1070
    40
1040
1.0
1070
   147
1040
0.5
1002
}
  0
DIMENSION
  5
218
330
22
100
AcDbEntity
  8
0
100
AcDbDimension
  2
*D17
 10
247.8794527266962
 20
82.40190769193654
 30
0.0
 11
245.8794527266962
 21
80.90190769193659
 31
0.0
 70
    32
 71
     5
 42
3.0
  3
MYCADR13
100
AcDbAlignedDimension
 13
239.1247692626446
 23
79.40190769193654
 33
0.0
 14
239.1247692626445
 24
82.40190769193654
 34
0.0
 50
90.0
100
AcDbRotatedDimension
1001
ACAD
1000
DSTYLE
1002
{
1070
   340
1005
16F
1070
    47
1040
1.0
1070
    48
1040
1.0
1070
    40
1040
1.0
1070
   147
1040
0.5
1002
}
  0
LINE
  5
219
330
22
100
AcDbEntity
  8
0
100
AcDbLine
 10
163.6247692626447
 20
149.7129418446978
 30
0.0
 11
145.6489063320306
 21
149.7129418446978
 31
0.0
  0
LINE
  5
21A
330
22
100
AcDbEntity
  8
0
100
AcDbLine
 10
164.1247692626448
 20
152.7129418446979
 30
0.0
 11
145.6489063320306
 21
152.7129418446978
 31
0.0
  0
ARC
  5
21B
330
22
100
AcDbEntity
  8
0
100
AcDbCircle
 10
163.6247692626447
 20
142.2129418446978
 30
0.0
 40
7.5
100
AcDbArc
 50
0.0
 51
90.0
  0
ARC
  5
21C
330
22
100
AcDbEntity
  8
0
100
AcDbCircle
 10
164.1247692626448
 20
142.7129418446979
 30
0.0
 40
10.0
100
AcDbArc
 50
0.0
 51
90.0
  0
LINE
  5
21D
330
22
100
AcDbEntity
  8
0
100
AcDbLine
 10
171.1247692626447
 20
129.4019076919363
 30
0.0
 11
171.1247692626447
 21
142.2129418446978
 31
0.0
  0
LINE
  5
21E
330
22
100
AcDbEntity
  8
0
100
AcDbLine
 10
174.1247692626447
 20
129.4019076919363
 30
0.0
 11
174.1247692626448
 21
142.7129418446978
 31
0.0
  0
LINE
  5
21F
330
22
100
AcDbEntity
  8
0
100
AcDbLine
 10
135.6489063320306
 20
150.2129418446978
 30
0.0
 11
145.6489063320306
 21
150.2129418446978
 31
0.0
  0
LINE
  5
220
330
22
100
AcDbEntity
  8
0
100
AcDbLine
 10
135.6489063320306
 20
152.2129418446978
 30
0.0
 11
145.6489063320306
 21
152.2129418446978
 31
0.0
  0
LINE
  5
221
330
22
100
AcDbEntity
  8
0
100
AcDbLine
 10
135.6489063320306
 20
151.2129418446978
 30
0.0
 11
145.6489063320306
 21
151.2129418446978
 31
0.0
  0
LINE
  5
222
330
22
100
AcDbEntity
  8
0
100
AcDbLine
 10
145.6489063320306
 20
149.7129418446978
 30
0.0
 11
145.6489063320306
 21
152.7129418446978
 31
0.0
  0
LINE
  5
223
330
22
100
AcDbEntity
  8
0
100
AcDbLine
 10
135.6489063320306
 20
150.2129418446978
 30
0.0
 11
135.6489063320306
 21
152.2129418446978
 31
0.0
  0
LINE
  5
224
330
22
100
AcDbEntity
  8
0
100
AcDbLine
 10
226.1247692626446
 20
208.2859739557109
 30
0.0
 11
241.0124164351065
 21
208.2859739557109
 31
0.0
  0
DIMENSION
  5
225
330
22
100
AcDbEntity
  8
0
100
AcDbDimension
  2
*D18
 10
253.6530296168759
 20
208.2859739557109
 30
0.0
 11
251.6530296168758
 21
224.2859739557109
 31
0.0
 70
    32
  1
32
 71
     5
 42
32.00000000000003
  3
MYCADR13
100
AcDbAlignedDimension
 13
229.1247692626447
 23
240.2859739557109
 33
0.0
 14
229.1247692626447
 24
208.2859739557109
 34
0.0
 50
90.0
100
AcDbRotatedDimension
1001
ACAD
1000
DSTYLE
1002
{
1070
   340
1005
16F
1070
    47
1040
0.2
1070
    71
1070
     1
1070
    48
1040
0.200000001
1070
    40
1040
1.0
1070
   147
1040
0.5
1002
}
  0
DIMENSION
  5
226
330
22
100
AcDbEntity
  8
0
100
AcDbDimension
  2
*D19
 10
157.0080844021905
 20
238.7859739557109
 30
0.0
 11
155.0080844021904
 21
224.2859739557109
 31
0.0
 70
    32
  1
29
 71
     5
 42
28.99999999999995
  3
MYCADR13
100
AcDbAlignedDimension
 13
170.6247692626447
 23
209.7859739557109
 33
0.0
 14
170.6247692626446
 24
238.7859739557109
 34
0.0
 50
90.0
100
AcDbRotatedDimension
1001
ACAD
1000
DSTYLE
1002
{
1070
   340
1005
16F
1070
    47
1040
0.2
1070
    71
1070
     1
1070
    48
1040
0.200000001
1070
    40
1040
1.0
1070
   147
1040
0.5
1002
}
  0
LINE
  5
227
330
22
100
AcDbEntity
  8
0
100
AcDbLine
 10
237.1247692626446
 20
82.40190769193654
 30
0.0
 11
237.1247692626446
 21
79.40190769193654
 31
0.0
  0
LINE
  5
228
330
22
100
AcDbEntity
  8
0
100
AcDbLine
 10
161.1247692626446
 20
82.40190769193654
 30
0.0
 11
161.1247692626446
 21
79.40190769193654
 31
0.0
  0
LINE
  5
229
330
22
100
AcDbEntity
  8
0
100
AcDbLine
 10
234.1247692626446
 20
226.2859739557109
 30
0.0
 11
234.1247692626446
 21
216.3757923327858
 31
0.0
  0
DIMENSION
  5
22A
330
22
100
AcDbEntity
  8
0
100
AcDbDimension
  2
*D20
 10
234.1247692626446
 20
196.6332228352873
 30
0.0
 11
199.1247692626446
 21
198.6332228352873
 31
0.0
 70
    32
  1
70
 71
     5
 42
69.99999999999983
  3
MYCADR13
100
AcDbAlignedDimension
 13
164.1247692626447
 23
222.2859739557109
 33
0.0
 14
234.1247692626446
 24
222.2859739557109
 34
0.0
100
AcDbRotatedDimension
1001
ACAD
1000
DSTYLE
1002
{
1070
   340
1005
16F
1070
    47
1040
0.2
1070
    71
1070
     1
1070
    48
1040
0.200000001
1070
    40
1040
1.0
1070
   147
1040
0.5
1002
}
  0
MTEXT
  5
22B
330
22
100
AcDbEntity
  8
0
100
AcDbMText
 10
228.8655770212409
 20
165.0451107344602
 30
0.0
 40
3.0
 41
52.1
 71
     1
 72
     5
  1
５００MIN.
  7
KANJI
 73
     1
 44
1.0
1001
ACAD
1000
MTEXTBEGIN
1070
    73
1070
     1
1070
    44
1040
1.0
1070
    74
1070
     0
1000
MTEXTEND
  0
DIMENSION
  5
22C
330
22
100
AcDbEntity
  8
0
100
AcDbDimension
  2
*D21
 10
252.6271347533112
 20
159.7129418446979
 30
0.0
 11
257.6271347533112
 21
161.7129418446979
 31
0.0
 70
    32
 71
     5
 42
10.0
  3
MYCADR13
100
AcDbAlignedDimension
 13
262.6271347533112
 23
152.2129418446978
 33
0.0
 14
252.6271347533112
 24
152.2129418446978
 34
0.0
100
AcDbRotatedDimension
1001
ACAD
1000
DSTYLE
1002
{
1070
   340
1005
16F
1070
    47
1040
0.2
1070
    48
1040
0.2
1070
    40
1040
1.0
1070
   147
1040
0.5
1002
}
  0
LINE
  5
22D
330
22
100
AcDbEntity
  8
0
100
AcDbLine
 10
217.1356360843437
 20
129.4532176250897
 30
0.0
 11
216.7028605950961
 21
130.8734052057287
 31
0.0
  0
LINE
  5
22E
330
22
100
AcDbEntity
  8
0
100
AcDbLine
 10
217.1356360843439
 20
129.4532176250897
 30
0.0
 11
217.5684115735915
 21
130.8734052057287
 31
0.0
  0
DIMENSION
  5
22F
330
22
100
AcDbEntity
  8
0
100
AcDbDimension
  2
*D22
 10
245.4556704420821
 20
238.7859739557109
 30
0.0
 11
243.455670442082
 21
231.5359739557109
 31
0.0
 70
    32
 71
     5
 42
14.5
  3
MYCADR13
100
AcDbAlignedDimension
 13
237.1247692626446
 23
224.2859739557109
 33
0.0
 14
237.1247692626446
 24
238.7859739557109
 34
0.0
 50
90.0
100
AcDbRotatedDimension
1001
ACAD
1000
DSTYLE
1002
{
1070
   340
1005
16F
1070
    47
1040
0.2
1070
    48
1040
0.2
1070
    40
1040
1.0
1070
   147
1040
0.5
1002
}
  0
DIMENSION
  5
230
330
22
100
AcDbEntity
  8
0
100
AcDbDimension
  2
*D23
 10
195.8213125579917
 20
231.5359739557109
 30
0.0
 11
193.8213125579917
 21
224.2859739557109
 31
0.0
 70
    32
 71
     5
 42
14.50000000000011
  3
MYCADR13
100
AcDbAlignedDimension
 13
168.1247692626447
 23
217.0359739557109
 33
0.0
 14
168.1247692626447
 24
231.535973955711
 34
0.0
 50
90.0
100
AcDbRotatedDimension
1001
ACAD
1000
DSTYLE
1002
{
1070
   340
1005
16F
1070
    47
1040
0.2
1070
    48
1040
0.2
1070
    40
1040
1.0
1070
   147
1040
0.5
1002
}
  0
LINE
  5
231
330
22
100
AcDbEntity
  8
0
100
AcDbLine
 10
230.1247692626446
 20
231.535973955711
 30
0.0
 11
197.3213125579917
 21
231.535973955711
 31
0.0
  0
LEADER
  5
232
330
22
100
AcDbEntity
  8
0
100
AcDbLeader
  3
MYCADR13
 73
     0
 74
     0
 75
     1
 40
3.000000000000001
 41
49.57142857142856
 76
     3
 10
154.8868377973377
 20
152.7129418446978
 30
0.0
 10
173.2273495515734
 20
164.207617232452
 30
0.0
 10
174.7273495515734
 20
164.207617232452
 30
0.0
340
233
1001
ACAD
1000
DSTYLE
1002
{
1070
   340
1005
16F
1070
    47
1040
0.2
1070
    48
1040
0.2
1070
    40
1040
1.0
1070
   147
1040
0.5
1002
}
  0
MTEXT
  5
233
102
{ACAD_REACTORS
330
232
102
}
330
22
100
AcDbEntity
  8
0
100
AcDbMText
 10
175.2273495515734
 20
166.207617232452
 30
0.0
 40
3.0
 41
0.0
 71
     4
 72
     1
  1
\A1;ＵＬ１０１５ＡＷＧ１８（黒）
  7
KANJI
 73
     1
 44
1.0
1001
ACAD
1000
MTEXTBEGIN
1070
    73
1070
     1
1070
    44
1040
1.0
1070
    74
1070
     0
1000
MTEXTEND
  0
ENDSEC
  0
SECTION
  2
OBJECTS
  0
DICTIONARY
  5
C
330
0
100
AcDbDictionary
281
     1
  3
ACAD_COLOR
350
1B
  3
ACAD_GROUP
350
D
  3
ACAD_LAYOUT
350
19
  3
ACAD_MATERIAL
350
1A
  3
ACAD_MLINESTYLE
350
16
  3
ACAD_PLOTSETTINGS
350
18
  3
ACAD_PLOTSTYLENAME
350
E
  3
ACAD_TABLESTYLE
350
1C
  3
ACDBHEADERROUNDTRIPXREC
350
333
  3
AcDbVariableDictionary
350
328
  0
DICTIONARY
  5
1B
102
{ACAD_REACTORS
330
C
102
}
330
C
100
AcDbDictionary
281
     1
  0
DICTIONARY
  5
D
102
{ACAD_REACTORS
330
C
102
}
330
C
100
AcDbDictionary
281
     1
  0
DICTIONARY
  5
19
102
{ACAD_REACTORS
330
C
102
}
330
C
100
AcDbDictionary
281
     1
  3
Model
350
25
  3
レイアウト1
350
21
  0
DICTIONARY
  5
1A
102
{ACAD_REACTORS
330
C
102
}
330
C
100
AcDbDictionary
281
     1
  0
DICTIONARY
  5
16
102
{ACAD_REACTORS
330
C
102
}
330
C
100
AcDbDictionary
281
     1
  3
Standard
350
17
  0
DICTIONARY
  5
18
102
{ACAD_REACTORS
330
C
102
}
330
C
100
AcDbDictionary
281
     1
  0
ACDBDICTIONARYWDFLT
  5
E
102
{ACAD_REACTORS
330
C
102
}
330
C
100
AcDbDictionary
281
     1
  3
Normal
350
F
100
AcDbDictionaryWithDefault
340
F
  0
DICTIONARY
  5
1C
102
{ACAD_REACTORS
330
C
102
}
330
C
100
AcDbDictionary
281
     1
  3
Standard
350
1D
  0
DICTIONARY
  5
333
102
{ACAD_REACTORS
330
C
102
}
330
C
100
AcDbDictionary
281
     1
  0
DICTIONARY
  5
328
102
{ACAD_REACTORS
330
C
102
}
330
C
100
AcDbDictionary
281
     1
  3
CTABLESTYLE
350
329
  3
DIMASSOC
350
32A
  3
PROJECTNAME
350
32B
  0
LAYOUT
  5
25
102
{ACAD_XDICTIONARY
360
336
102
}
102
{ACAD_REACTORS
330
19
102
}
330
19
100
AcDbPlotSettings
  1

  2
Microsoft XPS Document Writer
  4

  6

 40
0.0
 41
0.0
 42
0.0
 43
0.0
 44
0.0
 45
0.0
 46
0.0
 47
0.0
 48
0.0
 49
0.0
140
0.0
141
0.0
142
1.0
143
1.0
 70
  1712
 72
     0
 73
     0
 74
     0
  7

 75
     0
147
1.0
148
0.0
149
0.0
100
AcDbLayout
  1
Model
 70
     1
 71
     0
 10
0.0
 20
0.0
 11
12.0
 21
9.0
 12
0.0
 22
0.0
 32
0.0
 14
0.0
 24
0.0
 34
0.0
 15
0.0
 25
0.0
 35
0.0
146
0.0
 13
0.0
 23
0.0
 33
0.0
 16
1.0
 26
0.0
 36
0.0
 17
0.0
 27
1.0
 37
0.0
 76
     0
330
22
  0
LAYOUT
  5
21
102
{ACAD_XDICTIONARY
360
334
102
}
102
{ACAD_REACTORS
330
19
102
}
330
19
100
AcDbPlotSettings
  1

  2
Microsoft XPS Document Writer
  4

  6

 40
0.0
 41
0.0
 42
0.0
 43
0.0
 44
0.0
 45
0.0
 46
0.0
 47
0.0
 48
0.0
 49
0.0
140
0.0
141
0.0
142
1.0
143
1.0
 70
   688
 72
     0
 73
     0
 74
     5
  7

 75
    16
147
1.0
148
0.0
149
0.0
100
AcDbLayout
  1
レイアウト1
 70
     1
 71
     1
 10
0.0
 20
0.0
 11
12.0
 21
9.0
 12
0.0
 22
0.0
 32
0.0
 14
1.000000000000000E+20
 24
1.000000000000000E+20
 34
1.000000000000000E+20
 15
-1.000000000000000E+20
 25
-1.000000000000000E+20
 35
-1.000000000000000E+20
146
0.0
 13
0.0
 23
0.0
 33
0.0
 16
1.0
 26
0.0
 36
0.0
 17
0.0
 27
1.0
 37
0.0
 76
     0
330
1E
  0
MLINESTYLE
  5
17
102
{ACAD_REACTORS
330
16
102
}
330
16
100
AcDbMlineStyle
  2
STANDARD
 70
     0
  3

 62
   256
 51
90.0
 52
90.0
 71
     2
 49
0.5
 62
   256
  6
BYLAYER
 49
-0.5
 62
   256
  6
BYLAYER
  0
ACDBPLACEHOLDER
  5
F
102
{ACAD_REACTORS
330
E
102
}
330
E
  0
TABLESTYLE
  5
1D
102
{ACAD_REACTORS
330
1C
102
}
330
1C
100
AcDbTableStyle
  3
Standard
 70
     0
 71
     0
 40
0.06
 41
0.06
280
     0
281
     0
  7
STANDARD
140
0.18
170
     2
 62
     0
 63
     7
283
     0
274
    -2
284
     1
 64
     0
275
    -2
285
     1
 65
     0
276
    -2
286
     1
 66
     0
277
    -2
287
     1
 67
     0
278
    -2
288
     1
 68
     0
279
    -2
289
     1
 69
     0
  7
STANDARD
140
0.25
170
     5
 62
     0
 63
     7
283
     0
274
    -2
284
     1
 64
     0
275
    -2
285
     1
 65
     0
276
    -2
286
     1
 66
     0
277
    -2
287
     1
 67
     0
278
    -2
288
     1
 68
     0
279
    -2
289
     1
 69
     0
  7
STANDARD
140
0.18
170
     5
 62
     0
 63
     7
283
     0
274
    -2
284
     1
 64
     0
275
    -2
285
     1
 65
     0
276
    -2
286
     1
 66
     0
277
    -2
287
     1
 67
     0
278
    -2
288
     1
 68
     0
279
    -2
289
     1
 69
     0
  0
DICTIONARYVAR
  5
329
102
{ACAD_REACTORS
330
328
102
}
330
328
100
DictionaryVariables
280
     0
  1
STANDARD
  0
DICTIONARYVAR
  5
32A
102
{ACAD_REACTORS
330
328
102
}
330
328
100
DictionaryVariables
280
     0
  1
1
  0
DICTIONARYVAR
  5
32B
102
{ACAD_REACTORS
330
328
102
}
330
328
100
DictionaryVariables
280
     0
  1

  0
DICTIONARY
  5
336
330
25
100
AcDbDictionary
280
     1
281
     1
  3
ACAD_XREC_ROUNDTRIP
360
337
  0
DICTIONARY
  5
334
330
21
100
AcDbDictionary
280
     1
281
     1
  3
ACAD_XREC_ROUNDTRIP
360
335
  0
XRECORD
  5
337
102
{ACAD_REACTORS
330
336
102
}
330
336
100
AcDbXrecord
280
     1
102
SHADEPLOT
 70
     0
102
SHADEPLOTRESLEVEL
 70
     2
102
SHADEPLOTCUSTOMDPI
 70
   300
  0
XRECORD
  5
335
102
{ACAD_REACTORS
330
334
102
}
330
334
100
AcDbXrecord
280
     1
102
SHADEPLOT
 70
     0
102
SHADEPLOTRESLEVEL
 70
     2
102
SHADEPLOTCUSTOMDPI
 70
   300
  0
ENDSEC
  0
EOF
