  0
SECTION
  2
HEADER
  9
$ACADVER
  1
AC1015
  9
$ACADMAINTVER
 70
    20
  9
$DWGCODEPAGE
  3
ANSI_932
  9
$INSBASE
 10
0.0
 20
0.0
 30
0.0
  9
$EXTMIN
 10
109.5910479758758
 20
10.0820392438058
 30
0.0
  9
$EXTMAX
 10
289.7482074636524
 20
280.3556131669723
 30
0.0
  9
$LIMMIN
 10
0.0
 20
0.0
  9
$LIMMAX
 10
420.0
 20
297.0
  9
$ORTHOMODE
 70
     0
  9
$REGENMODE
 70
     1
  9
$FILLMODE
 70
     1
  9
$QTEXTMODE
 70
     0
  9
$MIRRTEXT
 70
     0
  9
$LTSCALE
 40
1.0
  9
$ATTMODE
 70
     1
  9
$TEXTSIZE
 40
0.2
  9
$TRACEWID
 40
0.05
  9
$TEXTSTYLE
  7
STANDARD
  9
$CLAYER
  8
0
  9
$CELTYPE
  6
CONTINUOUS
  9
$CECOLOR
 62
   256
  9
$CELTSCALE
 40
1.0
  9
$DISPSILH
 70
     0
  9
$DIMSCALE
 40
1.0
  9
$DIMASZ
 40
0.18
  9
$DIMEXO
 40
0.0625
  9
$DIMDLI
 40
0.38
  9
$DIMRND
 40
0.0
  9
$DIMDLE
 40
0.0
  9
$DIMEXE
 40
0.18
  9
$DIMTP
 40
0.0
  9
$DIMTM
 40
0.0
  9
$DIMTXT
 40
0.18
  9
$DIMCEN
 40
0.09
  9
$DIMTSZ
 40
0.0
  9
$DIMTOL
 70
     0
  9
$DIMLIM
 70
     0
  9
$DIMTIH
 70
     1
  9
$DIMTOH
 70
     1
  9
$DIMSE1
 70
     0
  9
$DIMSE2
 70
     0
  9
$DIMTAD
 70
     0
  9
$DIMZIN
 70
     0
  9
$DIMBLK
  1

  9
$DIMASO
 70
     1
  9
$DIMSHO
 70
     1
  9
$DIMPOST
  1

  9
$DIMAPOST
  1

  9
$DIMALT
 70
     0
  9
$DIMALTD
 70
     2
  9
$DIMALTF
 40
25.4
  9
$DIMLFAC
 40
1.0
  9
$DIMTOFL
 70
     0
  9
$DIMTVP
 40
0.0
  9
$DIMTIX
 70
     0
  9
$DIMSOXD
 70
     0
  9
$DIMSAH
 70
     0
  9
$DIMBLK1
  1

  9
$DIMBLK2
  1

  9
$DIMSTYLE
  2
Standard
  9
$DIMCLRD
 70
     0
  9
$DIMCLRE
 70
     0
  9
$DIMCLRT
 70
     0
  9
$DIMTFAC
 40
1.0
  9
$DIMGAP
 40
0.09
  9
$DIMJUST
 70
     0
  9
$DIMSD1
 70
     0
  9
$DIMSD2
 70
     0
  9
$DIMTOLJ
 70
     1
  9
$DIMTZIN
 70
     0
  9
$DIMALTZ
 70
     0
  9
$DIMALTTZ
 70
     0
  9
$DIMUPT
 70
     0
  9
$DIMDEC
 70
     4
  9
$DIMTDEC
 70
     4
  9
$DIMALTU
 70
     2
  9
$DIMALTTD
 70
     2
  9
$DIMTXSTY
  7
STANDARD
  9
$DIMAUNIT
 70
     0
  9
$DIMADEC
 70
     0
  9
$DIMALTRND
 40
0.0
  9
$DIMAZIN
 70
     0
  9
$DIMDSEP
 70
    46
  9
$DIMATFIT
 70
     3
  9
$DIMFRAC
 70
     0
  9
$DIMLDRBLK
  1

  9
$DIMLUNIT
 70
     2
  9
$DIMLWD
 70
    -2
  9
$DIMLWE
 70
    -2
  9
$DIMTMOVE
 70
     0
  9
$LUNITS
 70
     2
  9
$LUPREC
 70
     4
  9
$SKETCHINC
 40
0.1
  9
$FILLETRAD
 40
0.0
  9
$AUNITS
 70
     0
  9
$AUPREC
 70
     0
  9
$MENU
  1
.
  9
$ELEVATION
 40
0.0
  9
$PELEVATION
 40
0.0
  9
$THICKNESS
 40
0.0
  9
$LIMCHECK
 70
     0
  9
$CHAMFERA
 40
0.0
  9
$CHAMFERB
 40
0.0
  9
$CHAMFERC
 40
0.0
  9
$CHAMFERD
 40
0.0
  9
$SKPOLY
 70
     0
  9
$TDCREATE
 40
2456517.687988819
  9
$TDUCREATE
 40
2456517.312988820
  9
$TDUPDATE
 40
2456517.689082570
  9
$TDUUPDATE
 40
2456517.314082570
  9
$TDINDWG
 40
0.0010944676
  9
$TDUSRTIMER
 40
0.0010944676
  9
$USRTIMER
 70
     1
  9
$ANGBASE
 50
0.0
  9
$ANGDIR
 70
     0
  9
$PDMODE
 70
     0
  9
$PDSIZE
 40
0.0
  9
$PLINEWID
 40
0.0
  9
$SPLFRAME
 70
     0
  9
$SPLINETYPE
 70
     6
  9
$SPLINESEGS
 70
     8
  9
$HANDSEED
  5
4AA
  9
$SURFTAB1
 70
     6
  9
$SURFTAB2
 70
     6
  9
$SURFTYPE
 70
     6
  9
$SURFU
 70
     6
  9
$SURFV
 70
     6
  9
$UCSBASE
  2

  9
$UCSNAME
  2

  9
$UCSORG
 10
0.0
 20
0.0
 30
0.0
  9
$UCSXDIR
 10
1.0
 20
0.0
 30
0.0
  9
$UCSYDIR
 10
0.0
 20
1.0
 30
0.0
  9
$UCSORTHOREF
  2

  9
$UCSORTHOVIEW
 70
     0
  9
$UCSORGTOP
 10
0.0
 20
0.0
 30
0.0
  9
$UCSORGBOTTOM
 10
0.0
 20
0.0
 30
0.0
  9
$UCSORGLEFT
 10
0.0
 20
0.0
 30
0.0
  9
$UCSORGRIGHT
 10
0.0
 20
0.0
 30
0.0
  9
$UCSORGFRONT
 10
0.0
 20
0.0
 30
0.0
  9
$UCSORGBACK
 10
0.0
 20
0.0
 30
0.0
  9
$PUCSBASE
  2

  9
$PUCSNAME
  2

  9
$PUCSORG
 10
0.0
 20
0.0
 30
0.0
  9
$PUCSXDIR
 10
1.0
 20
0.0
 30
0.0
  9
$PUCSYDIR
 10
0.0
 20
1.0
 30
0.0
  9
$PUCSORTHOREF
  2

  9
$PUCSORTHOVIEW
 70
     0
  9
$PUCSORGTOP
 10
0.0
 20
0.0
 30
0.0
  9
$PUCSORGBOTTOM
 10
0.0
 20
0.0
 30
0.0
  9
$PUCSORGLEFT
 10
0.0
 20
0.0
 30
0.0
  9
$PUCSORGRIGHT
 10
0.0
 20
0.0
 30
0.0
  9
$PUCSORGFRONT
 10
0.0
 20
0.0
 30
0.0
  9
$PUCSORGBACK
 10
0.0
 20
0.0
 30
0.0
  9
$USERI1
 70
     0
  9
$USERI2
 70
     0
  9
$USERI3
 70
     0
  9
$USERI4
 70
     0
  9
$USERI5
 70
     0
  9
$USERR1
 40
0.0
  9
$USERR2
 40
0.0
  9
$USERR3
 40
0.0
  9
$USERR4
 40
0.0
  9
$USERR5
 40
0.0
  9
$WORLDVIEW
 70
     1
  9
$SHADEDGE
 70
     3
  9
$SHADEDIF
 70
    70
  9
$TILEMODE
 70
     1
  9
$MAXACTVP
 70
    64
  9
$PINSBASE
 10
0.0
 20
0.0
 30
0.0
  9
$PLIMCHECK
 70
     0
  9
$PEXTMIN
 10
1.000000000000000E+20
 20
1.000000000000000E+20
 30
1.000000000000000E+20
  9
$PEXTMAX
 10
-1.000000000000000E+20
 20
-1.000000000000000E+20
 30
-1.000000000000000E+20
  9
$PLIMMIN
 10
0.0
 20
0.0
  9
$PLIMMAX
 10
12.0
 20
9.0
  9
$UNITMODE
 70
     0
  9
$VISRETAIN
 70
     1
  9
$PLINEGEN
 70
     0
  9
$PSLTSCALE
 70
     1
  9
$TREEDEPTH
 70
  3020
  9
$CMLSTYLE
  2
Standard
  9
$CMLJUST
 70
     0
  9
$CMLSCALE
 40
1.0
  9
$PROXYGRAPHICS
 70
     1
  9
$MEASUREMENT
 70
     0
  9
$CELWEIGHT
370
    -1
  9
$ENDCAPS
280
     0
  9
$JOINSTYLE
280
     0
  9
$LWDISPLAY
290
     0
  9
$INSUNITS
 70
     0
  9
$HYPERLINKBASE
  1

  9
$STYLESHEET
  1

  9
$XEDIT
290
     1
  9
$CEPSNTYPE
380
     0
  9
$PSTYLEMODE
290
     1
  9
$FINGERPRINTGUID
  2
{5E1E060C-EEF7-4C7F-A592-9287E080C09D}
  9
$VERSIONGUID
  2
{964035C3-13AC-4CAD-9383-1C8C180EECE3}
  9
$EXTNAMES
290
     1
  9
$PSVPSCALE
 40
0.0
  9
$OLESTARTUP
290
     0
  0
ENDSEC
  0
SECTION
  2
CLASSES
  0
CLASS
  1
ACDBDICTIONARYWDFLT
  2
AcDbDictionaryWithDefault
  3
ObjectDBX Classes
 90
        0
280
     0
281
     0
  0
CLASS
  1
TABLESTYLE
  2
AcDbTableStyle
  3
ObjectDBX Classes
 90
     2047
280
     0
281
     0
  0
CLASS
  1
SORTENTSTABLE
  2
AcDbSortentsTable
  3
ObjectDBX Classes
 90
        0
280
     0
281
     0
  0
CLASS
  1
DICTIONARYVAR
  2
AcDbDictionaryVar
  3
ObjectDBX Classes
 90
        0
280
     0
281
     0
  0
CLASS
  1
ACDBPLACEHOLDER
  2
AcDbPlaceHolder
  3
ObjectDBX Classes
 90
        0
280
     0
281
     0
  0
CLASS
  1
LAYOUT
  2
AcDbLayout
  3
ObjectDBX Classes
 90
        0
280
     0
281
     0
  0
ENDSEC
  0
SECTION
  2
TABLES
  0
TABLE
  2
VPORT
  5
8
330
0
100
AcDbSymbolTable
 70
     2
  0
VPORT
  5
4A4
330
8
100
AcDbSymbolTableRecord
100
AcDbViewportTableRecord
  2
*Active
 70
     0
 10
0.0
 20
0.0
 11
1.0
 21
1.0
 12
156.4824745855776
 22
147.3927281998495
 13
0.0
 23
0.0
 14
1.0
 24
1.0
 15
0.0
 25
0.0
 16
0.0
 26
0.0
 36
1.0
 17
0.0
 27
0.0
 37
0.0
 40
200.246489100945
 41
1.603406326034063
 42
50.0
 43
0.0
 44
0.0
 50
0.0
 51
0.0
 71
     0
 72
   100
 73
     1
 74
     1
 75
     0
 76
     0
 77
     0
 78
     0
281
     0
 65
     1
110
0.0
120
0.0
130
0.0
111
1.0
121
0.0
131
0.0
112
0.0
122
1.0
132
0.0
 79
     0
146
0.0
  0
ENDTAB
  0
TABLE
  2
LTYPE
  5
5
330
0
100
AcDbSymbolTable
 70
    42
  0
LTYPE
  5
13
330
5
100
AcDbSymbolTableRecord
100
AcDbLinetypeTableRecord
  2
ByBlock
 70
     0
  3

 72
    65
 73
     0
 40
0.0
  0
LTYPE
  5
14
330
5
100
AcDbSymbolTableRecord
100
AcDbLinetypeTableRecord
  2
ByLayer
 70
     0
  3

 72
    65
 73
     0
 40
0.0
  0
LTYPE
  5
15
330
5
100
AcDbSymbolTableRecord
100
AcDbLinetypeTableRecord
  2
CONTINUOUS
 70
     0
  3
実線
 72
    65
 73
     0
 40
0.0
  0
LTYPE
  5
26
330
5
100
AcDbSymbolTableRecord
100
AcDbLinetypeTableRecord
  2
DASHED1
 70
     0
  3
--  --  --  --  --  --  --  --  
 72
    65
 73
     2
 40
2.5
 49
1.25
 74
     0
 49
-1.25
 74
     0
  0
LTYPE
  5
27
330
5
100
AcDbSymbolTableRecord
100
AcDbLinetypeTableRecord
  2
DASHED2
 70
     0
  3
----    ----    ----    ----    
 72
    65
 73
     2
 40
5.0
 49
2.5
 74
     0
 49
-2.5
 74
     0
  0
LTYPE
  5
28
330
5
100
AcDbSymbolTableRecord
100
AcDbLinetypeTableRecord
  2
DASHED3
 70
     0
  3
------  ------  ------  ------  
 72
    65
 73
     2
 40
5.0
 49
3.75
 74
     0
 49
-1.25
 74
     0
  0
LTYPE
  5
29
330
5
100
AcDbSymbolTableRecord
100
AcDbLinetypeTableRecord
  2
CENTER1
 70
     0
  3
----- - ----- - ----- - ----- - 
 72
    65
 73
     4
 40
10.0
 49
6.25
 74
     0
 49
-1.25
 74
     0
 49
1.25
 74
     0
 49
-1.25
 74
     0
  0
LTYPE
  5
2A
330
5
100
AcDbSymbolTableRecord
100
AcDbLinetypeTableRecord
  2
CENTER2
 70
     0
  3
----------  --  ----------  --  
 72
    65
 73
     4
 40
20.0
 49
12.5
 74
     0
 49
-2.5
 74
     0
 49
2.5
 74
     0
 49
-2.5
 74
     0
  0
LTYPE
  5
2B
330
5
100
AcDbSymbolTableRecord
100
AcDbLinetypeTableRecord
  2
PHANTOM1
 70
     0
  3
--- - - --- - - --- - - --- - - 
 72
    65
 73
     6
 40
10.0
 49
3.25
 74
     0
 49
-1.25
 74
     0
 49
1.25
 74
     0
 49
-1.25
 74
     0
 49
1.25
 74
     0
 49
-1.25
 74
     0
  0
LTYPE
  5
2C
330
5
100
AcDbSymbolTableRecord
100
AcDbLinetypeTableRecord
  2
PHANTOM2
 70
     0
  3
--------  -  -  --------  -  -  
 72
    65
 73
     6
 40
20.0
 49
10.0
 74
     0
 49
-2.5
 74
     0
 49
1.25
 74
     0
 49
-2.5
 74
     0
 49
1.25
 74
     0
 49
-2.5
 74
     0
  0
LTYPE
  5
2D
330
5
100
AcDbSymbolTableRecord
100
AcDbLinetypeTableRecord
  2
DOT
 70
     0
  3
                                
 72
    65
 73
     0
 40
0.0
  0
LTYPE
  5
2E
330
5
100
AcDbSymbolTableRecord
100
AcDbLinetypeTableRecord
  2
DUMMY
 70
     0
  3
ダミー
 72
    65
 73
     0
 40
0.0
  0
LTYPE
  5
2F
330
5
100
AcDbSymbolTableRecord
100
AcDbLinetypeTableRecord
  2
RAND1
 70
     0
  3
ランダム線1
 72
    65
 73
     4
 40
10.0
 49
1.0
 74
     0
 49
-2.0
 74
     0
 49
3.0
 74
     0
 49
-4.0
 74
     0
  0
LTYPE
  5
30
330
5
100
AcDbSymbolTableRecord
100
AcDbLinetypeTableRecord
  2
RAND2
 70
     0
  3
ランダム線2
 72
    65
 73
     4
 40
14.0
 49
2.0
 74
     0
 49
-3.0
 74
     0
 49
4.0
 74
     0
 49
-5.0
 74
     0
  0
LTYPE
  5
31
330
5
100
AcDbSymbolTableRecord
100
AcDbLinetypeTableRecord
  2
RAND3
 70
     0
  3
ランダム線3
 72
    65
 73
     4
 40
18.0
 49
3.0
 74
     0
 49
-4.0
 74
     0
 49
5.0
 74
     0
 49
-6.0
 74
     0
  0
LTYPE
  5
32
330
5
100
AcDbSymbolTableRecord
100
AcDbLinetypeTableRecord
  2
RAND4
 70
     0
  3
ランダム線4
 72
    65
 73
     4
 40
22.0
 49
4.0
 74
     0
 49
-5.0
 74
     0
 49
6.0
 74
     0
 49
-7.0
 74
     0
  0
LTYPE
  5
33
330
5
100
AcDbSymbolTableRecord
100
AcDbLinetypeTableRecord
  2
RAND5
 70
     0
  3
ランダム線5
 72
    65
 73
     4
 40
26.0
 49
5.0
 74
     0
 49
-6.0
 74
     0
 49
7.0
 74
     0
 49
-8.0
 74
     0
  0
LTYPE
  5
34
330
5
100
AcDbSymbolTableRecord
100
AcDbLinetypeTableRecord
  2
LONG1
 70
     0
  3
----------  --  ----------  --  
 72
    65
 73
     4
 40
40.0
 49
32.5
 74
     0
 49
-2.5
 74
     0
 49
2.5
 74
     0
 49
-2.5
 74
     0
  0
LTYPE
  5
35
330
5
100
AcDbSymbolTableRecord
100
AcDbLinetypeTableRecord
  2
LONG2
 70
     0
  3
--------  -  -  --------  -  -  
 72
    65
 73
     6
 40
40.0
 49
30.0
 74
     0
 49
-2.5
 74
     0
 49
1.25
 74
     0
 49
-2.5
 74
     0
 49
1.25
 74
     0
 49
-2.5
 74
     0
  0
LTYPE
  5
36
330
5
100
AcDbSymbolTableRecord
100
AcDbLinetypeTableRecord
  2
LONG3
 70
     0
  3
+++++++++++++++..+++++++++++++++
 72
    65
 73
     2
 40
40.0
 49
37.5
 74
     0
 49
-2.5
 74
     0
  0
LTYPE
  5
37
330
5
100
AcDbSymbolTableRecord
100
AcDbLinetypeTableRecord
  2
LONG4
 70
     0
  3
+++++++++++++++..+++++++++++++++
 72
    65
 73
     2
 40
80.0
 49
75.0
 74
     0
 49
-5.0
 74
     0
  0
LTYPE
  5
38
330
5
100
AcDbSymbolTableRecord
100
AcDbLinetypeTableRecord
  2
LONG5
 70
     0
  3
----------  --  ----------  --  
 72
    65
 73
     4
 40
60.0
 49
37.5
 74
     0
 49
-7.5
 74
     0
 49
7.5
 74
     0
 49
-7.5
 74
     0
  0
LTYPE
  5
39
330
5
100
AcDbSymbolTableRecord
100
AcDbLinetypeTableRecord
  2
DASHED
 70
     0
  3
                                
 72
    65
 73
     0
 40
0.0
  0
LTYPE
  5
3A
330
5
100
AcDbSymbolTableRecord
100
AcDbLinetypeTableRecord
  2
DASHED_SPACED
 70
     0
  3
----        --------        ----
 72
    65
 73
     2
 40
12.0
 49
6.0
 74
     0
 49
-6.0
 74
     0
  0
LTYPE
  5
3B
330
5
100
AcDbSymbolTableRecord
100
AcDbLinetypeTableRecord
  2
LONG_DASHED_DOTTED
 70
     0
  3
------------- --- --------------
 72
    65
 73
     4
 40
15.25
 49
12.0
 74
     0
 49
-1.5
 74
     0
 49
0.25
 74
     0
 49
-1.5
 74
     0
  0
LTYPE
  5
3C
330
5
100
AcDbSymbolTableRecord
100
AcDbLinetypeTableRecord
  2
LONG_DASHED_DOUBLE-DOTTED
 70
     0
  3
----------- --- --- ------------
 72
    65
 73
     6
 40
17.0
 49
12.0
 74
     0
 49
-1.5
 74
     0
 49
0.25
 74
     0
 49
-1.5
 74
     0
 49
0.25
 74
     0
 49
-1.5
 74
     0
  0
LTYPE
  5
3D
330
5
100
AcDbSymbolTableRecord
100
AcDbLinetypeTableRecord
  2
LONG_DASHED_TRIPLICATE-DOTTED
 70
     0
  3
--------- --- --- --- ----------
 72
    65
 73
     8
 40
18.75
 49
12.0
 74
     0
 49
-1.5
 74
     0
 49
0.25
 74
     0
 49
-1.5
 74
     0
 49
0.25
 74
     0
 49
-1.5
 74
     0
 49
0.25
 74
     0
 49
-1.5
 74
     0
  0
LTYPE
  5
3E
330
5
100
AcDbSymbolTableRecord
100
AcDbLinetypeTableRecord
  2
DOTTED
 70
     0
  3
   -       -       -       -    
 72
    65
 73
     2
 40
1.75
 49
0.25
 74
     0
 49
-1.5
 74
     0
  0
LTYPE
  5
3F
330
5
100
AcDbSymbolTableRecord
100
AcDbLinetypeTableRecord
  2
CHAIN
 70
     0
  3
-------------- -- --------------
 72
    65
 73
     4
 40
18.5
 49
12.0
 74
     0
 49
-1.5
 74
     0
 49
3.5
 74
     0
 49
-1.5
 74
     0
  0
LTYPE
  5
40
330
5
100
AcDbSymbolTableRecord
100
AcDbLinetypeTableRecord
  2
CHAIN_DOUBLE_DASH
 70
     0
  3
------------ -- -- -------------
 72
    65
 73
     6
 40
23.5
 49
12.0
 74
     0
 49
-1.5
 74
     0
 49
3.5
 74
     0
 49
-1.5
 74
     0
 49
3.5
 74
     0
 49
-1.5
 74
     0
  0
LTYPE
  5
41
330
5
100
AcDbSymbolTableRecord
100
AcDbLinetypeTableRecord
  2
DASHED_DOTTED
 70
     0
  3
-----------     -     ----------
 72
    65
 73
     4
 40
9.25
 49
6.0
 74
     0
 49
-1.5
 74
     0
 49
0.25
 74
     0
 49
-1.5
 74
     0
  0
LTYPE
  5
42
330
5
100
AcDbSymbolTableRecord
100
AcDbLinetypeTableRecord
  2
DOUBLE-DASHED_DOTTED
 70
     0
  3
------   -----------   -   -----
 72
    65
 73
     6
 40
16.75
 49
6.0
 74
     0
 49
-1.5
 74
     0
 49
6.0
 74
     0
 49
-1.5
 74
     0
 49
0.25
 74
     0
 49
-1.5
 74
     0
  0
LTYPE
  5
43
330
5
100
AcDbSymbolTableRecord
100
AcDbLinetypeTableRecord
  2
DASHED_DOUBLE-DOTTED
 70
     0
  3
---------    -    -    ---------
 72
    65
 73
     6
 40
11.0
 49
6.0
 74
     0
 49
-1.5
 74
     0
 49
0.25
 74
     0
 49
-1.5
 74
     0
 49
0.25
 74
     0
 49
-1.5
 74
     0
  0
LTYPE
  5
44
330
5
100
AcDbSymbolTableRecord
100
AcDbLinetypeTableRecord
  2
DOUBLE-DASHED_DOUBLE-DOTTED
 70
     0
  3
-----   ---------   -   -   ----
 72
    65
 73
     8
 40
18.5
 49
6.0
 74
     0
 49
-1.5
 74
     0
 49
6.0
 74
     0
 49
-1.5
 74
     0
 49
0.25
 74
     0
 49
-1.5
 74
     0
 49
0.25
 74
     0
 49
-1.5
 74
     0
  0
LTYPE
  5
45
330
5
100
AcDbSymbolTableRecord
100
AcDbLinetypeTableRecord
  2
DASHED_TRIPLICATE-DOTTED
 70
     0
  3
-------    -    -    -    ------
 72
    65
 73
     8
 40
12.75
 49
6.0
 74
     0
 49
-1.5
 74
     0
 49
0.25
 74
     0
 49
-1.5
 74
     0
 49
0.25
 74
     0
 49
-1.5
 74
     0
 49
0.25
 74
     0
 49
-1.5
 74
     0
  0
LTYPE
  5
46
330
5
100
AcDbSymbolTableRecord
100
AcDbLinetypeTableRecord
  2
DOUBLE-DASHED_TRIPLICATE-DOTTED
 70
     0
  3
-----  ---------  -  -  -  -----
 72
    65
 73
    10
 40
20.25
 49
6.0
 74
     0
 49
-1.5
 74
     0
 49
6.0
 74
     0
 49
-1.5
 74
     0
 49
0.25
 74
     0
 49
-1.5
 74
     0
 49
0.25
 74
     0
 49
-1.5
 74
     0
 49
0.25
 74
     0
 49
-1.5
 74
     0
  0
LTYPE
  5
47
330
5
100
AcDbSymbolTableRecord
100
AcDbLinetypeTableRecord
  2
UNDEFINED
 70
     0
  3
--------------------------------
 72
    65
 73
     0
 40
0.0
  0
LTYPE
  5
48
330
5
100
AcDbSymbolTableRecord
100
AcDbLinetypeTableRecord
  2
HIDDEN
 70
     0
  3
                                
 72
    65
 73
     0
 40
0.0
  0
LTYPE
  5
49
330
5
100
AcDbSymbolTableRecord
100
AcDbLinetypeTableRecord
  2
CENTER
 70
     0
  3
                                
 72
    65
 73
     0
 40
0.0
  0
LTYPE
  5
4A
330
5
100
AcDbSymbolTableRecord
100
AcDbLinetypeTableRecord
  2
PHANTOM
 70
     0
  3
                                
 72
    65
 73
     0
 40
0.0
  0
LTYPE
  5
4B
330
5
100
AcDbSymbolTableRecord
100
AcDbLinetypeTableRecord
  2
DASHDOT
 70
     0
  3
                                
 72
    65
 73
     0
 40
0.0
  0
LTYPE
  5
4C
330
5
100
AcDbSymbolTableRecord
100
AcDbLinetypeTableRecord
  2
BORDER
 70
     0
  3
                                
 72
    65
 73
     0
 40
0.0
  0
LTYPE
  5
4D
330
5
100
AcDbSymbolTableRecord
100
AcDbLinetypeTableRecord
  2
HOJYO
 70
     0
  3
                                
 72
    65
 73
     0
 40
0.0
  0
ENDTAB
  0
TABLE
  2
LAYER
  5
2
330
0
100
AcDbSymbolTable
 70
    10
  0
LAYER
  5
10
330
2
100
AcDbSymbolTableRecord
100
AcDbLayerTableRecord
  2
0
 70
     0
 62
     7
  6
CONTINUOUS
370
    -3
390
F
  0
LAYER
  5
4F
330
2
100
AcDbSymbolTableRecord
100
AcDbLayerTableRecord
  2
_0-1_
 70
     0
 62
     7
  6
CONTINUOUS
370
    -3
390
F
  0
LAYER
  5
50
330
2
100
AcDbSymbolTableRecord
100
AcDbLayerTableRecord
  2
_1-1_
 70
     0
 62
     7
  6
CONTINUOUS
370
    -3
390
F
  0
LAYER
  5
51
330
2
100
AcDbSymbolTableRecord
100
AcDbLayerTableRecord
  2
_1-2_
 70
     0
 62
     7
  6
CONTINUOUS
370
    -3
390
F
  0
LAYER
  5
52
330
2
100
AcDbSymbolTableRecord
100
AcDbLayerTableRecord
  2
_1-3_ADD_LINE
 70
     0
 62
     7
  6
CONTINUOUS
370
    -3
390
F
  0
LAYER
  5
53
330
2
100
AcDbSymbolTableRecord
100
AcDbLayerTableRecord
  2
_1-4_
 70
     0
 62
     7
  6
CONTINUOUS
370
    -3
390
F
  0
LAYER
  5
54
330
2
100
AcDbSymbolTableRecord
100
AcDbLayerTableRecord
  2
ADD_LINE
 70
     0
 62
     7
  6
CONTINUOUS
370
    -3
390
F
  0
LAYER
  5
283
330
2
100
AcDbSymbolTableRecord
100
AcDbLayerTableRecord
  2
DEFPOINTS
 70
     0
 62
     5
  6
CONTINUOUS
290
     0
370
    -3
390
F
  0
LAYER
  5
284
330
2
100
AcDbSymbolTableRecord
100
AcDbLayerTableRecord
  2
SUNPOU
 70
     0
 62
     4
  6
CONTINUOUS
370
    -3
390
F
  0
LAYER
  5
285
330
2
100
AcDbSymbolTableRecord
100
AcDbLayerTableRecord
  2
画層1
 70
     0
 62
     7
  6
CONTINUOUS
370
    -3
390
F
1001
AcAecLayerStandard
1000

1000

  0
ENDTAB
  0
TABLE
  2
STYLE
  5
3
330
0
100
AcDbSymbolTable
 70
     3
  0
STYLE
  5
11
330
3
100
AcDbSymbolTableRecord
100
AcDbTextStyleTableRecord
  2
STANDARD
 70
     0
 40
0.0
 41
1.0
 50
0.0
 71
     0
 42
0.2
  3
txt
  4
bigfont.shx
  0
STYLE
  5
4E
330
3
100
AcDbSymbolTableRecord
100
AcDbTextStyleTableRecord
  2
TATEGAKI
 70
     4
 40
0.0
 41
1.0
 50
0.0
 71
     0
 42
1.0
  3
txt
  4
bigfont.shx
  0
STYLE
  5
286
330
3
100
AcDbSymbolTableRecord
100
AcDbTextStyleTableRecord
  2
KANJI
 70
     0
 40
0.0
 41
1.0
 50
0.0
 71
     0
 42
3.0
  3
romans
  4
extfont
  0
ENDTAB
  0
TABLE
  2
VIEW
  5
6
330
0
100
AcDbSymbolTable
 70
     0
  0
ENDTAB
  0
TABLE
  2
UCS
  5
7
330
0
100
AcDbSymbolTable
 70
     0
  0
ENDTAB
  0
TABLE
  2
APPID
  5
9
330
0
100
AcDbSymbolTable
 70
     3
  0
APPID
  5
12
330
9
100
AcDbSymbolTableRecord
100
AcDbRegAppTableRecord
  2
ACAD
 70
     0
  0
APPID
  5
288
330
9
100
AcDbSymbolTableRecord
100
AcDbRegAppTableRecord
  2
AcAecLayerStandard
 70
     0
  0
APPID
  5
289
330
9
100
AcDbSymbolTableRecord
100
AcDbRegAppTableRecord
  2
ACAD_PSEXT
 70
     0
  0
ENDTAB
  0
TABLE
  2
DIMSTYLE
  5
A
330
0
100
AcDbSymbolTable
 70
     3
100
AcDbDimStyleTable
 71
     0
  0
DIMSTYLE
105
20E
330
A
100
AcDbSymbolTableRecord
100
AcDbDimStyleTableRecord
  2
Standard
 70
     0
340
11
  0
DIMSTYLE
105
287
102
{ACAD_REACTORS
330
314
330
315
330
316
330
317
330
318
330
319
330
31A
330
31B
330
31C
330
3AD
330
3AE
330
3AF
330
3B0
330
3B1
330
3B2
330
3B3
330
3B4
330
3B5
102
}
330
A
100
AcDbSymbolTableRecord
100
AcDbDimStyleTableRecord
  2
MYCADR13
 70
     0
 40
0.0
 41
1.5
 42
1.0
 43
7.0
 44
1.5
 73
     0
 74
     0
 77
     3
 78
     8
140
3.0
141
0.0
145
0.7
146
0.5
172
     1
173
     1
174
     1
271
     1
272
     1
340
11
341
210
343
210
344
210
  0
ENDTAB
  0
TABLE
  2
BLOCK_RECORD
  5
1
330
0
100
AcDbSymbolTable
 70
    21
  0
BLOCK_RECORD
  5
22
330
1
100
AcDbSymbolTableRecord
100
AcDbBlockTableRecord
  2
*Model_Space
340
25
  0
BLOCK_RECORD
  5
1E
330
1
100
AcDbSymbolTableRecord
100
AcDbBlockTableRecord
  2
*Paper_Space
340
21
  0
BLOCK_RECORD
  5
210
330
1
100
AcDbSymbolTableRecord
100
AcDbBlockTableRecord
  2
_OPEN
340
0
102
{BLKREFS
331
2A3
331
2A9
331
2B0
331
2B1
331
21B
331
21C
331
227
331
228
331
234
331
235
331
240
331
241
331
24C
331
24D
331
258
331
259
331
264
331
265
331
270
331
271
331
27C
331
27D
331
349
331
34A
331
442
331
443
331
44B
331
44C
331
454
331
455
331
45D
331
45E
331
46F
331
470
331
47E
331
47F
331
487
331
488
331
491
331
492
331
49A
331
49B
102
}
  0
BLOCK_RECORD
  5
216
330
1
100
AcDbSymbolTableRecord
100
AcDbBlockTableRecord
  2
*D1
340
0
  0
BLOCK_RECORD
  5
222
330
1
100
AcDbSymbolTableRecord
100
AcDbBlockTableRecord
  2
*D2
340
0
  0
BLOCK_RECORD
  5
22E
330
1
100
AcDbSymbolTableRecord
100
AcDbBlockTableRecord
  2
*D3
340
0
  0
BLOCK_RECORD
  5
23B
330
1
100
AcDbSymbolTableRecord
100
AcDbBlockTableRecord
  2
*D4
340
0
  0
BLOCK_RECORD
  5
247
330
1
100
AcDbSymbolTableRecord
100
AcDbBlockTableRecord
  2
*D5
340
0
  0
BLOCK_RECORD
  5
253
330
1
100
AcDbSymbolTableRecord
100
AcDbBlockTableRecord
  2
*D6
340
0
  0
BLOCK_RECORD
  5
25F
330
1
100
AcDbSymbolTableRecord
100
AcDbBlockTableRecord
  2
*D7
340
0
  0
BLOCK_RECORD
  5
26B
330
1
100
AcDbSymbolTableRecord
100
AcDbBlockTableRecord
  2
*D8
340
0
  0
BLOCK_RECORD
  5
277
330
1
100
AcDbSymbolTableRecord
100
AcDbBlockTableRecord
  2
*D9
340
0
  0
BLOCK_RECORD
  5
3B6
330
1
100
AcDbSymbolTableRecord
100
AcDbBlockTableRecord
  2
*D11
340
0
  0
BLOCK_RECORD
  5
3C2
330
1
100
AcDbSymbolTableRecord
100
AcDbBlockTableRecord
  2
*D12
340
0
  0
BLOCK_RECORD
  5
3CE
330
1
100
AcDbSymbolTableRecord
100
AcDbBlockTableRecord
  2
*D13
340
0
  0
BLOCK_RECORD
  5
3DB
330
1
100
AcDbSymbolTableRecord
100
AcDbBlockTableRecord
  2
*D14
340
0
  0
BLOCK_RECORD
  5
3E7
330
1
100
AcDbSymbolTableRecord
100
AcDbBlockTableRecord
  2
*D15
340
0
  0
BLOCK_RECORD
  5
3F3
330
1
100
AcDbSymbolTableRecord
100
AcDbBlockTableRecord
  2
*D16
340
0
  0
BLOCK_RECORD
  5
3FF
330
1
100
AcDbSymbolTableRecord
100
AcDbBlockTableRecord
  2
*D17
340
0
  0
BLOCK_RECORD
  5
40B
330
1
100
AcDbSymbolTableRecord
100
AcDbBlockTableRecord
  2
*D18
340
0
  0
BLOCK_RECORD
  5
417
330
1
100
AcDbSymbolTableRecord
100
AcDbBlockTableRecord
  2
*D19
340
0
  0
ENDTAB
  0
ENDSEC
  0
SECTION
  2
BLOCKS
  0
BLOCK
  5
23
330
22
100
AcDbEntity
  8
0
100
AcDbBlockBegin
  2
*Model_Space
 70
     0
 10
0.0
 20
0.0
 30
0.0
  3
*Model_Space
  1

  0
ENDBLK
  5
24
330
22
100
AcDbEntity
  8
0
100
AcDbBlockEnd
  0
BLOCK
  5
1F
330
1E
100
AcDbEntity
 67
     1
  8
0
100
AcDbBlockBegin
  2
*Paper_Space
 70
     0
 10
0.0
 20
0.0
 30
0.0
  3
*Paper_Space
  1

  0
ENDBLK
  5
20
330
1E
100
AcDbEntity
 67
     1
  8
0
100
AcDbBlockEnd
  0
BLOCK
  5
211
330
210
100
AcDbEntity
  8
0
100
AcDbBlockBegin
  2
_OPEN
 70
     0
 10
0.0
 20
0.0
 30
0.0
  3
_OPEN
  1

  0
LINE
  5
212
330
210
100
AcDbEntity
  8
0
  6
ByBlock
 62
     0
100
AcDbLine
 10
-1.0
 20
0.1666666666666666
 30
0.0
 11
0.0
 21
0.0
 31
0.0
  0
LINE
  5
213
330
210
100
AcDbEntity
  8
0
  6
ByBlock
 62
     0
100
AcDbLine
 10
0.0
 20
0.0
 30
0.0
 11
-1.0
 21
-0.1666666666666666
 31
0.0
  0
LINE
  5
214
330
210
100
AcDbEntity
  8
0
  6
ByBlock
 62
     0
100
AcDbLine
 10
0.0
 20
0.0
 30
0.0
 11
-1.0
 21
0.0
 31
0.0
  0
ENDBLK
  5
215
330
210
100
AcDbEntity
  8
0
100
AcDbBlockEnd
  0
BLOCK
  5
217
330
216
100
AcDbEntity
  8
0
100
AcDbBlockBegin
  2
*D1
 70
     1
 10
0.0
 20
0.0
 30
0.0
  3
*D1
  1

  0
LINE
  5
218
330
216
100
AcDbEntity
  8
画層1
 62
     0
370
    -2
100
AcDbLine
 10
101.012529564353
 20
205.9563599109202
 30
0.0
 11
101.012529564353
 21
193.7770223621386
 31
0.0
  0
LINE
  5
219
330
216
100
AcDbEntity
  8
画層1
 62
     0
370
    -2
100
AcDbLine
 10
108.0125295643531
 20
205.9563599109203
 30
0.0
 11
108.0125295643531
 21
193.7770223621386
 31
0.0
  0
LINE
  5
21A
330
216
100
AcDbEntity
  8
画層1
 62
     0
370
    -2
100
AcDbLine
 10
102.262529564353
 20
195.0270223621386
 30
0.0
 11
106.7625295643531
 21
195.0270223621386
 31
0.0
  0
INSERT
  5
21B
330
216
100
AcDbEntity
  8
画層1
 62
     0
370
    -2
100
AcDbBlockReference
  2
_OPEN
 10
101.012529564353
 20
195.0270223621386
 30
0.0
 41
1.25
 42
1.25
 43
1.25
 50
180.0
  0
INSERT
  5
21C
330
216
100
AcDbEntity
  8
画層1
 62
     0
370
    -2
100
AcDbBlockReference
  2
_OPEN
 10
108.0125295643531
 20
195.0270223621386
 30
0.0
 41
1.25
 42
1.25
 43
1.25
  0
MTEXT
  5
21D
330
216
100
AcDbEntity
  8
画層1
 62
     0
100
AcDbMText
 10
104.5125295643531
 20
196.6936890288052
 30
0.0
 40
2.5
 41
0.0
 71
     5
 72
     1
  1
\A1;7
  7
KANJI
 73
     1
 44
1.0
1001
ACAD
1000
MTEXTBEGIN
1070
    73
1070
     1
1070
    44
1040
1.0
1070
    74
1070
     0
1000
MTEXTEND
  0
POINT
  5
21E
330
216
100
AcDbEntity
  8
DEFPOINTS
 62
     0
100
AcDbPoint
 10
101.012529564353
 20
206.7896932442535
 30
0.0
  0
POINT
  5
21F
330
216
100
AcDbEntity
  8
DEFPOINTS
 62
     0
100
AcDbPoint
 10
108.0125295643531
 20
206.7896932442536
 30
0.0
  0
POINT
  5
220
330
216
100
AcDbEntity
  8
DEFPOINTS
 62
     0
100
AcDbPoint
 10
108.0125295643531
 20
195.0270223621386
 30
0.0
  0
ENDBLK
  5
221
330
216
100
AcDbEntity
  8
0
100
AcDbBlockEnd
  0
BLOCK
  5
223
330
222
100
AcDbEntity
  8
0
100
AcDbBlockBegin
  2
*D2
 70
     1
 10
0.0
 20
0.0
 30
0.0
  3
*D2
  1

  0
LINE
  5
224
330
222
100
AcDbEntity
  8
画層1
 62
     0
370
    -2
100
AcDbLine
 10
100.8791962310196
 20
206.0896932442536
 30
0.0
 11
95.88811852474396
 21
206.0896932442536
 31
0.0
  0
LINE
  5
225
330
222
100
AcDbEntity
  8
画層1
 62
     0
370
    -2
100
AcDbLine
 10
103.6791962310199
 20
212.0896932442533
 30
0.0
 11
95.88811852474396
 21
212.0896932442533
 31
0.0
  0
LINE
  5
226
330
222
100
AcDbEntity
  8
画層1
 62
     0
370
    -2
100
AcDbLine
 10
97.13811852474396
 20
207.3396932442536
 30
0.0
 11
97.13811852474396
 21
210.8396932442533
 31
0.0
  0
INSERT
  5
227
330
222
100
AcDbEntity
  8
画層1
 62
     0
370
    -2
100
AcDbBlockReference
  2
_OPEN
 10
97.13811852474396
 20
206.0896932442536
 30
0.0
 41
1.25
 42
1.25
 43
1.25
 50
270.0
  0
INSERT
  5
228
330
222
100
AcDbEntity
  8
画層1
 62
     0
370
    -2
100
AcDbBlockReference
  2
_OPEN
 10
97.13811852474396
 20
212.0896932442533
 30
0.0
 41
1.25
 42
1.25
 43
1.25
 50
90.0
  0
MTEXT
  5
229
330
222
100
AcDbEntity
  8
画層1
 62
     0
100
AcDbMText
 10
95.47145185807726
 20
209.0896932442535
 30
0.0
 40
2.5
 41
0.0
 71
     5
 72
     1
  1
\A1;6
  7
KANJI
 11
0.0000000000000001
 21
1.0
 31
0.0
 73
     1
 44
1.0
1001
ACAD
1000
MTEXTBEGIN
1070
    73
1070
     1
1070
    44
1040
1.0
1070
    74
1070
     0
1000
MTEXTEND
  0
POINT
  5
22A
330
222
100
AcDbEntity
  8
DEFPOINTS
 62
     0
100
AcDbPoint
 10
101.7125295643529
 20
206.0896932442536
 30
0.0
  0
POINT
  5
22B
330
222
100
AcDbEntity
  8
DEFPOINTS
 62
     0
100
AcDbPoint
 10
104.5125295643532
 20
212.0896932442533
 30
0.0
  0
POINT
  5
22C
330
222
100
AcDbEntity
  8
DEFPOINTS
 62
     0
100
AcDbPoint
 10
97.13811852474396
 20
212.0896932442533
 30
0.0
  0
ENDBLK
  5
22D
330
222
100
AcDbEntity
  8
0
100
AcDbBlockEnd
  0
BLOCK
  5
22F
330
22E
100
AcDbEntity
  8
0
100
AcDbBlockBegin
  2
*D3
 70
     1
 10
0.0
 20
0.0
 30
0.0
  3
*D3
  1

  0
LINE
  5
230
330
22E
100
AcDbEntity
  8
画層1
 62
     0
370
    -2
100
AcDbLine
 10
102.4125295643531
 20
205.9563599109202
 30
0.0
 11
102.4125295643531
 21
200.8100411605553
 31
0.0
  0
LINE
  5
231
330
22E
100
AcDbEntity
  8
画層1
 62
     0
370
    -2
100
AcDbLine
 10
106.6125295643531
 20
205.9563599109203
 30
0.0
 11
106.6125295643531
 21
200.8100411605553
 31
0.0
  0
LINE
  5
232
330
22E
100
AcDbEntity
  8
画層1
 62
     0
370
    -2
100
AcDbLine
 10
105.3625295643531
 20
202.0600411605554
 30
0.0
 11
103.6625295643531
 21
202.0600411605554
 31
0.0
  0
LINE
  5
233
330
22E
100
AcDbEntity
  8
画層1
 62
     0
370
    -2
100
AcDbLine
 10
102.4125295643531
 20
202.0600411605554
 30
0.0
 11
94.96428571428571
 21
202.0600411605554
 31
0.0
  0
INSERT
  5
234
330
22E
100
AcDbEntity
  8
画層1
 62
     0
370
    -2
100
AcDbBlockReference
  2
_OPEN
 10
106.6125295643531
 20
202.0600411605554
 30
0.0
 41
1.25
 42
1.25
 43
1.25
  0
INSERT
  5
235
330
22E
100
AcDbEntity
  8
画層1
 62
     0
370
    -2
100
AcDbBlockReference
  2
_OPEN
 10
102.4125295643531
 20
202.0600411605554
 30
0.0
 41
1.25
 42
1.25
 43
1.25
 50
180.0
  0
MTEXT
  5
236
330
22E
100
AcDbEntity
  8
画層1
 62
     0
100
AcDbMText
 10
98.0
 20
203.726707827222
 30
0.0
 40
2.5
 41
0.0
 71
     5
 72
     1
  1
\A1;4.2
  7
KANJI
 73
     1
 44
1.0
1001
ACAD
1000
MTEXTBEGIN
1070
    73
1070
     1
1070
    44
1040
1.0
1070
    74
1070
     0
1000
MTEXTEND
  0
POINT
  5
237
330
22E
100
AcDbEntity
  8
DEFPOINTS
 62
     0
370
    -3
100
AcDbPoint
 10
102.4125295643531
 20
206.7896932442536
 30
0.0
  0
POINT
  5
238
330
22E
100
AcDbEntity
  8
DEFPOINTS
 62
     0
370
    -3
100
AcDbPoint
 10
106.6125295643531
 20
206.7896932442537
 30
0.0
  0
POINT
  5
239
330
22E
100
AcDbEntity
  8
DEFPOINTS
 62
     0
370
    -3
100
AcDbPoint
 10
106.6125295643531
 20
202.0600411605554
 30
0.0
  0
ENDBLK
  5
23A
330
22E
100
AcDbEntity
  8
0
100
AcDbBlockEnd
  0
BLOCK
  5
23C
330
23B
100
AcDbEntity
  8
0
370
    -3
100
AcDbBlockBegin
  2
*D4
 70
     1
 10
0.0
 20
0.0
 30
0.0
  3
*D4
  1

  0
LINE
  5
23D
330
23B
100
AcDbEntity
  8
画層1
 62
     0
370
    -2
100
AcDbLine
 10
46.08446456427979
 20
174.3578442254575
 30
0.0
 11
46.08446456427979
 21
161.6654593245068
 31
0.0
  0
LINE
  5
23E
330
23B
100
AcDbEntity
  8
画層1
 62
     0
370
    -2
100
AcDbLine
 10
54.78446456427992
 20
174.3578442254575
 30
0.0
 11
54.78446456427992
 21
161.6654593245068
 31
0.0
  0
LINE
  5
23F
330
23B
100
AcDbEntity
  8
画層1
 62
     0
370
    -2
100
AcDbLine
 10
47.33446456427979
 20
162.9154593245068
 30
0.0
 11
53.53446456427992
 21
162.9154593245068
 31
0.0
  0
INSERT
  5
240
330
23B
100
AcDbEntity
  8
画層1
 62
     0
370
    -2
100
AcDbBlockReference
  2
_OPEN
 10
46.08446456427979
 20
162.9154593245068
 30
0.0
 41
1.25
 42
1.25
 43
1.25
 50
180.0
  0
INSERT
  5
241
330
23B
100
AcDbEntity
  8
画層1
 62
     0
370
    -2
100
AcDbBlockReference
  2
_OPEN
 10
54.78446456427992
 20
162.9154593245068
 30
0.0
 41
1.25
 42
1.25
 43
1.25
  0
MTEXT
  5
242
330
23B
100
AcDbEntity
  8
画層1
 62
     0
370
    -3
100
AcDbMText
 10
50.43446456427986
 20
164.5821259911735
 30
0.0
 40
2.5
 41
0.0
 71
     5
 72
     1
  1
\A1;8.7
  7
KANJI
 73
     1
 44
1.0
1001
ACAD
1000
MTEXTBEGIN
1070
    73
1070
     1
1070
    44
1040
1.0
1070
    74
1070
     0
1000
MTEXTEND
  0
POINT
  5
243
330
23B
100
AcDbEntity
  8
DEFPOINTS
 62
     0
370
    -3
100
AcDbPoint
 10
46.08446456427979
 20
175.1911775587908
 30
0.0
  0
POINT
  5
244
330
23B
100
AcDbEntity
  8
DEFPOINTS
 62
     0
370
    -3
100
AcDbPoint
 10
54.78446456427992
 20
175.1911775587908
 30
0.0
  0
POINT
  5
245
330
23B
100
AcDbEntity
  8
DEFPOINTS
 62
     0
370
    -3
100
AcDbPoint
 10
54.78446456427992
 20
162.9154593245068
 30
0.0
  0
ENDBLK
  5
246
330
23B
100
AcDbEntity
  8
0
370
    -3
100
AcDbBlockEnd
  0
BLOCK
  5
248
330
247
100
AcDbEntity
  8
0
370
    -3
100
AcDbBlockBegin
  2
*D5
 70
     1
 10
0.0
 20
0.0
 30
0.0
  3
*D5
  1

  0
LINE
  5
249
330
247
100
AcDbEntity
  8
画層1
 62
     0
370
    -2
100
AcDbLine
 10
37.3844645642798
 20
174.3578442254572
 30
0.0
 11
37.3844645642798
 21
161.6654593245068
 31
0.0
  0
LINE
  5
24A
330
247
100
AcDbEntity
  8
画層1
 62
     0
370
    -2
100
AcDbLine
 10
46.08446456427979
 20
174.3578442254572
 30
0.0
 11
46.08446456427979
 21
161.6654593245068
 31
0.0
  0
LINE
  5
24B
330
247
100
AcDbEntity
  8
画層1
 62
     0
370
    -2
100
AcDbLine
 10
38.6344645642798
 20
162.9154593245068
 30
0.0
 11
44.83446456427979
 21
162.9154593245068
 31
0.0
  0
INSERT
  5
24C
330
247
100
AcDbEntity
  8
画層1
 62
     0
370
    -2
100
AcDbBlockReference
  2
_OPEN
 10
37.3844645642798
 20
162.9154593245068
 30
0.0
 41
1.25
 42
1.25
 43
1.25
 50
180.0
  0
INSERT
  5
24D
330
247
100
AcDbEntity
  8
画層1
 62
     0
370
    -2
100
AcDbBlockReference
  2
_OPEN
 10
46.08446456427979
 20
162.9154593245068
 30
0.0
 41
1.25
 42
1.25
 43
1.25
  0
MTEXT
  5
24E
330
247
100
AcDbEntity
  8
画層1
 62
     0
370
    -3
100
AcDbMText
 10
41.7344645642798
 20
164.5821259911735
 30
0.0
 40
2.5
 41
0.0
 71
     5
 72
     1
  1
\A1;8.7
  7
KANJI
 73
     1
 44
1.0
1001
ACAD
1000
MTEXTBEGIN
1070
    73
1070
     1
1070
    44
1040
1.0
1070
    74
1070
     0
1000
MTEXTEND
  0
POINT
  5
24F
330
247
100
AcDbEntity
  8
DEFPOINTS
 62
     0
370
    -3
100
AcDbPoint
 10
37.3844645642798
 20
175.1911775587906
 30
0.0
  0
POINT
  5
250
330
247
100
AcDbEntity
  8
DEFPOINTS
 62
     0
370
    -3
100
AcDbPoint
 10
46.08446456427979
 20
175.1911775587906
 30
0.0
  0
POINT
  5
251
330
247
100
AcDbEntity
  8
DEFPOINTS
 62
     0
370
    -3
100
AcDbPoint
 10
46.08446456427979
 20
162.9154593245068
 30
0.0
  0
ENDBLK
  5
252
330
247
100
AcDbEntity
  8
0
370
    -3
100
AcDbBlockEnd
  0
BLOCK
  5
254
330
253
100
AcDbEntity
  8
0
370
    -3
100
AcDbBlockBegin
  2
*D6
 70
     1
 10
0.0
 20
0.0
 30
0.0
  3
*D6
  1

  0
LINE
  5
255
330
253
100
AcDbEntity
  8
画層1
 62
     0
370
    -2
100
AcDbLine
 10
32.58446456427969
 20
95.52947345308899
 30
0.0
 11
32.58446456427969
 21
79.43891432803093
 31
0.0
  0
LINE
  5
256
330
253
100
AcDbEntity
  8
画層1
 62
     0
370
    -2
100
AcDbLine
 10
59.58446456427969
 20
95.52947345308899
 30
0.0
 11
59.58446456427969
 21
79.43891432803093
 31
0.0
  0
LINE
  5
257
330
253
100
AcDbEntity
  8
画層1
 62
     0
370
    -2
100
AcDbLine
 10
33.83446456427969
 20
80.68891432803093
 30
0.0
 11
58.33446456427969
 21
80.68891432803093
 31
0.0
  0
INSERT
  5
258
330
253
100
AcDbEntity
  8
画層1
 62
     0
370
    -2
100
AcDbBlockReference
  2
_OPEN
 10
32.58446456427969
 20
80.68891432803093
 30
0.0
 41
1.25
 42
1.25
 43
1.25
 50
180.0
  0
INSERT
  5
259
330
253
100
AcDbEntity
  8
画層1
 62
     0
370
    -2
100
AcDbBlockReference
  2
_OPEN
 10
59.58446456427969
 20
80.68891432803093
 30
0.0
 41
1.25
 42
1.25
 43
1.25
  0
MTEXT
  5
25A
330
253
100
AcDbEntity
  8
画層1
 62
     0
370
    -3
100
AcDbMText
 10
46.08446456427969
 20
82.35558099469761
 30
0.0
 40
2.5
 41
0.0
 71
     5
 72
     1
  1
\A1;27
  7
KANJI
 73
     1
 44
1.0
1001
ACAD
1000
MTEXTBEGIN
1070
    73
1070
     1
1070
    44
1040
1.0
1070
    74
1070
     0
1000
MTEXTEND
  0
POINT
  5
25B
330
253
100
AcDbEntity
  8
DEFPOINTS
 62
     0
370
    -3
100
AcDbPoint
 10
32.58446456427969
 20
96.36280678642233
 30
0.0
  0
POINT
  5
25C
330
253
100
AcDbEntity
  8
DEFPOINTS
 62
     0
370
    -3
100
AcDbPoint
 10
59.58446456427969
 20
96.36280678642233
 30
0.0
  0
POINT
  5
25D
330
253
100
AcDbEntity
  8
DEFPOINTS
 62
     0
370
    -3
100
AcDbPoint
 10
59.58446456427969
 20
80.68891432803093
 30
0.0
  0
ENDBLK
  5
25E
330
253
100
AcDbEntity
  8
0
370
    -3
100
AcDbBlockEnd
  0
BLOCK
  5
260
330
25F
100
AcDbEntity
  8
0
370
    -3
100
AcDbBlockBegin
  2
*D7
 70
     1
 10
0.0
 20
0.0
 30
0.0
  3
*D7
  1

  0
LINE
  5
261
330
25F
100
AcDbEntity
  8
画層1
 62
     0
370
    -2
100
AcDbLine
 10
59.92537307213784
 20
130.86274939986
 30
0.0
 11
70.17298888760388
 21
130.86274939986
 31
0.0
  0
LINE
  5
262
330
25F
100
AcDbEntity
  8
画層1
 62
     0
370
    -2
100
AcDbLine
 10
59.92537307213783
 20
95.8628067864223
 30
0.0
 11
70.17298888760386
 21
95.8628067864223
 31
0.0
  0
LINE
  5
263
330
25F
100
AcDbEntity
  8
画層1
 62
     0
370
    -2
100
AcDbLine
 10
68.92298888760388
 20
129.61274939986
 30
0.0
 11
68.92298888760388
 21
97.11280678642232
 31
0.0
  0
INSERT
  5
264
330
25F
100
AcDbEntity
  8
画層1
 62
     0
370
    -2
100
AcDbBlockReference
  2
_OPEN
 10
68.92298888760388
 20
130.86274939986
 30
0.0
 41
1.25
 42
1.25
 43
1.25
 50
90.0
  0
INSERT
  5
265
330
25F
100
AcDbEntity
  8
画層1
 62
     0
370
    -2
100
AcDbBlockReference
  2
_OPEN
 10
68.92298888760386
 20
95.8628067864223
 30
0.0
 41
1.25
 42
1.25
 43
1.25
 50
270.0
  0
MTEXT
  5
266
330
25F
100
AcDbEntity
  8
画層1
 62
     0
370
    -3
100
AcDbMText
 10
67.25632222093718
 20
113.3627780931412
 30
0.0
 40
2.5
 41
0.0
 71
     5
 72
     1
  1
\A1;35
  7
KANJI
 11
0.0000000000000001
 21
1.0
 31
0.0
 73
     1
 44
1.0
1001
ACAD
1000
MTEXTBEGIN
1070
    73
1070
     1
1070
    44
1040
1.0
1070
    74
1070
     0
1000
MTEXTEND
  0
POINT
  5
267
330
25F
100
AcDbEntity
  8
DEFPOINTS
 62
     0
370
    -3
100
AcDbPoint
 10
59.09203973880451
 20
130.86274939986
 30
0.0
  0
POINT
  5
268
330
25F
100
AcDbEntity
  8
DEFPOINTS
 62
     0
370
    -3
100
AcDbPoint
 10
59.0920397388045
 20
95.8628067864223
 30
0.0
  0
POINT
  5
269
330
25F
100
AcDbEntity
  8
DEFPOINTS
 62
     0
370
    -3
100
AcDbPoint
 10
68.92298888760386
 20
95.8628067864223
 30
0.0
  0
ENDBLK
  5
26A
330
25F
100
AcDbEntity
  8
0
370
    -3
100
AcDbBlockEnd
  0
BLOCK
  5
26C
330
26B
100
AcDbEntity
  8
0
370
    -3
100
AcDbBlockBegin
  2
*D8
 70
     1
 10
0.0
 20
0.0
 30
0.0
  3
*D8
  1

  0
LINE
  5
26D
330
26B
100
AcDbEntity
  8
画層1
 62
     0
370
    -2
100
AcDbLine
 10
108.1458628976864
 20
206.0896932442536
 30
0.0
 11
115.236640612225
 21
206.0896932442536
 31
0.0
  0
LINE
  5
26E
330
26B
100
AcDbEntity
  8
画層1
 62
     0
370
    -2
100
AcDbLine
 10
108.1458628976864
 20
217.0896932442535
 30
0.0
 11
115.236640612225
 21
217.0896932442535
 31
0.0
  0
LINE
  5
26F
330
26B
100
AcDbEntity
  8
画層1
 62
     0
370
    -2
100
AcDbLine
 10
113.986640612225
 20
207.3396932442536
 30
0.0
 11
113.986640612225
 21
215.8396932442535
 31
0.0
  0
INSERT
  5
270
330
26B
100
AcDbEntity
  8
画層1
 62
     0
370
    -2
100
AcDbBlockReference
  2
_OPEN
 10
113.986640612225
 20
206.0896932442536
 30
0.0
 41
1.25
 42
1.25
 43
1.25
 50
270.0
  0
INSERT
  5
271
330
26B
100
AcDbEntity
  8
画層1
 62
     0
370
    -2
100
AcDbBlockReference
  2
_OPEN
 10
113.986640612225
 20
217.0896932442535
 30
0.0
 41
1.25
 42
1.25
 43
1.25
 50
90.0
  0
MTEXT
  5
272
330
26B
100
AcDbEntity
  8
画層1
 62
     0
370
    -3
100
AcDbMText
 10
112.3199739455583
 20
211.5896932442536
 30
0.0
 40
2.5
 41
0.0
 71
     5
 72
     1
  1
\A1;11
  7
KANJI
 11
0.0000000000000001
 21
1.0
 31
0.0
 73
     1
 44
1.0
1001
ACAD
1000
MTEXTBEGIN
1070
    73
1070
     1
1070
    44
1040
1.0
1070
    74
1070
     0
1000
MTEXTEND
  0
POINT
  5
273
330
26B
100
AcDbEntity
  8
DEFPOINTS
 62
     0
370
    -3
100
AcDbPoint
 10
107.3125295643531
 20
206.0896932442536
 30
0.0
  0
POINT
  5
274
330
26B
100
AcDbEntity
  8
DEFPOINTS
 62
     0
370
    -3
100
AcDbPoint
 10
107.3125295643531
 20
217.0896932442535
 30
0.0
  0
POINT
  5
275
330
26B
100
AcDbEntity
  8
DEFPOINTS
 62
     0
370
    -3
100
AcDbPoint
 10
113.986640612225
 20
217.0896932442535
 30
0.0
  0
ENDBLK
  5
276
330
26B
100
AcDbEntity
  8
0
370
    -3
100
AcDbBlockEnd
  0
BLOCK
  5
278
330
277
100
AcDbEntity
  8
0
370
    -3
100
AcDbBlockBegin
  2
*D9
 70
     1
 10
0.0
 20
0.0
 30
0.0
  3
*D9
  1

  0
LINE
  5
279
330
277
100
AcDbEntity
  8
画層1
 62
     0
370
    -2
100
AcDbLine
 10
58.41779789761318
 20
171.0124315030525
 30
0.0
 11
72.65204383807406
 21
171.0124315030525
 31
0.0
  0
LINE
  5
27A
330
277
100
AcDbEntity
  8
画層1
 62
     0
370
    -2
100
AcDbLine
 10
60.41779789761302
 20
182.0124315030524
 30
0.0
 11
72.65204383807406
 21
182.0124315030524
 31
0.0
  0
LINE
  5
27B
330
277
100
AcDbEntity
  8
画層1
 62
     0
370
    -2
100
AcDbLine
 10
71.40204383807406
 20
172.2624315030525
 30
0.0
 11
71.40204383807406
 21
180.7624315030524
 31
0.0
  0
INSERT
  5
27C
330
277
100
AcDbEntity
  8
画層1
 62
     0
370
    -2
100
AcDbBlockReference
  2
_OPEN
 10
71.40204383807406
 20
171.0124315030525
 30
0.0
 41
1.25
 42
1.25
 43
1.25
 50
270.0
  0
INSERT
  5
27D
330
277
100
AcDbEntity
  8
画層1
 62
     0
370
    -2
100
AcDbBlockReference
  2
_OPEN
 10
71.40204383807406
 20
182.0124315030524
 30
0.0
 41
1.25
 42
1.25
 43
1.25
 50
90.0
  0
MTEXT
  5
27E
330
277
100
AcDbEntity
  8
画層1
 62
     0
370
    -3
100
AcDbMText
 10
69.73537717140736
 20
176.5124315030525
 30
0.0
 40
2.5
 41
0.0
 71
     5
 72
     1
  1
\A1;11
  7
KANJI
 11
0.0000000000000001
 21
1.0
 31
0.0
 73
     1
 44
1.0
1001
ACAD
1000
MTEXTBEGIN
1070
    73
1070
     1
1070
    44
1040
1.0
1070
    74
1070
     0
1000
MTEXTEND
  0
POINT
  5
27F
330
277
100
AcDbEntity
  8
DEFPOINTS
 62
     0
370
    -3
100
AcDbPoint
 10
57.58446456427984
 20
171.0124315030525
 30
0.0
  0
POINT
  5
280
330
277
100
AcDbEntity
  8
DEFPOINTS
 62
     0
370
    -3
100
AcDbPoint
 10
59.58446456427968
 20
182.0124315030524
 30
0.0
  0
POINT
  5
281
330
277
100
AcDbEntity
  8
DEFPOINTS
 62
     0
370
    -3
100
AcDbPoint
 10
71.40204383807406
 20
182.0124315030524
 30
0.0
  0
ENDBLK
  5
282
330
277
100
AcDbEntity
  8
0
370
    -3
100
AcDbBlockEnd
  0
BLOCK
  5
3C0
330
3B6
100
AcDbEntity
  8
0
100
AcDbBlockBegin
  2
*D11
 70
     1
 10
0.0
 20
0.0
 30
0.0
  3
*D11
  1

  0
LINE
  5
47B
330
3B6
100
AcDbEntity
  8
画層1
 62
     0
370
    -2
100
AcDbLine
 10
223.2274195918032
 20
176.094797757403
 30
0.0
 11
223.2274195918032
 21
163.9154602086214
 31
0.0
  0
LINE
  5
47C
330
3B6
100
AcDbEntity
  8
画層1
 62
     0
370
    -2
100
AcDbLine
 10
230.2274195918033
 20
176.0947977574031
 30
0.0
 11
230.2274195918033
 21
163.9154602086214
 31
0.0
  0
LINE
  5
47D
330
3B6
100
AcDbEntity
  8
画層1
 62
     0
370
    -2
100
AcDbLine
 10
224.4774195918032
 20
165.1654602086214
 30
0.0
 11
228.9774195918033
 21
165.1654602086214
 31
0.0
  0
INSERT
  5
47E
330
3B6
100
AcDbEntity
  8
画層1
 62
     0
370
    -2
100
AcDbBlockReference
  2
_OPEN
 10
223.2274195918032
 20
165.1654602086214
 30
0.0
 41
1.25
 42
1.25
 43
1.25
 50
180.0
  0
INSERT
  5
47F
330
3B6
100
AcDbEntity
  8
画層1
 62
     0
370
    -2
100
AcDbBlockReference
  2
_OPEN
 10
230.2274195918033
 20
165.1654602086214
 30
0.0
 41
1.25
 42
1.25
 43
1.25
  0
MTEXT
  5
480
330
3B6
100
AcDbEntity
  8
画層1
 62
     0
100
AcDbMText
 10
226.7274195918032
 20
166.8321268752881
 30
0.0
 40
2.5
 41
0.0
 71
     5
 72
     1
  1
\A1;7
  7
KANJI
 73
     1
 44
1.0
1001
ACAD
1000
MTEXTBEGIN
1070
    73
1070
     1
1070
    44
1040
1.0
1070
    74
1070
     0
1000
MTEXTEND
  0
POINT
  5
481
330
3B6
100
AcDbEntity
  8
DEFPOINTS
 62
     0
100
AcDbPoint
 10
223.2274195918032
 20
176.9281310907363
 30
0.0
  0
POINT
  5
482
330
3B6
100
AcDbEntity
  8
DEFPOINTS
 62
     0
100
AcDbPoint
 10
230.2274195918033
 20
176.9281310907364
 30
0.0
  0
POINT
  5
483
330
3B6
100
AcDbEntity
  8
DEFPOINTS
 62
     0
100
AcDbPoint
 10
230.2274195918033
 20
165.1654602086214
 30
0.0
  0
ENDBLK
  5
3C1
330
3B6
100
AcDbEntity
  8
0
100
AcDbBlockEnd
  0
BLOCK
  5
3CC
330
3C2
100
AcDbEntity
  8
0
100
AcDbBlockBegin
  2
*D12
 70
     1
 10
0.0
 20
0.0
 30
0.0
  3
*D12
  1

  0
LINE
  5
484
330
3C2
100
AcDbEntity
  8
画層1
 62
     0
370
    -2
100
AcDbLine
 10
223.0940862584698
 20
176.2281310907364
 30
0.0
 11
218.1030085521941
 21
176.2281310907364
 31
0.0
  0
LINE
  5
485
330
3C2
100
AcDbEntity
  8
画層1
 62
     0
370
    -2
100
AcDbLine
 10
225.89408625847
 20
182.2281310907361
 30
0.0
 11
218.1030085521941
 21
182.2281310907361
 31
0.0
  0
LINE
  5
486
330
3C2
100
AcDbEntity
  8
画層1
 62
     0
370
    -2
100
AcDbLine
 10
219.3530085521941
 20
177.4781310907364
 30
0.0
 11
219.3530085521941
 21
180.9781310907361
 31
0.0
  0
INSERT
  5
487
330
3C2
100
AcDbEntity
  8
画層1
 62
     0
370
    -2
100
AcDbBlockReference
  2
_OPEN
 10
219.3530085521941
 20
176.2281310907364
 30
0.0
 41
1.25
 42
1.25
 43
1.25
 50
270.0
  0
INSERT
  5
488
330
3C2
100
AcDbEntity
  8
画層1
 62
     0
370
    -2
100
AcDbBlockReference
  2
_OPEN
 10
219.3530085521941
 20
182.2281310907361
 30
0.0
 41
1.25
 42
1.25
 43
1.25
 50
90.0
  0
MTEXT
  5
489
330
3C2
100
AcDbEntity
  8
画層1
 62
     0
100
AcDbMText
 10
217.6863418855274
 20
179.2281310907363
 30
0.0
 40
2.5
 41
0.0
 71
     5
 72
     1
  1
\A1;6
  7
KANJI
 11
0.0000000000000001
 21
1.0
 31
0.0
 73
     1
 44
1.0
1001
ACAD
1000
MTEXTBEGIN
1070
    73
1070
     1
1070
    44
1040
1.0
1070
    74
1070
     0
1000
MTEXTEND
  0
POINT
  5
48A
330
3C2
100
AcDbEntity
  8
DEFPOINTS
 62
     0
100
AcDbPoint
 10
223.9274195918031
 20
176.2281310907364
 30
0.0
  0
POINT
  5
48B
330
3C2
100
AcDbEntity
  8
DEFPOINTS
 62
     0
100
AcDbPoint
 10
226.7274195918034
 20
182.2281310907361
 30
0.0
  0
POINT
  5
48C
330
3C2
100
AcDbEntity
  8
DEFPOINTS
 62
     0
100
AcDbPoint
 10
219.3530085521941
 20
182.2281310907361
 30
0.0
  0
ENDBLK
  5
3CD
330
3C2
100
AcDbEntity
  8
0
100
AcDbBlockEnd
  0
BLOCK
  5
3D9
330
3CE
100
AcDbEntity
  8
0
100
AcDbBlockBegin
  2
*D13
 70
     1
 10
0.0
 20
0.0
 30
0.0
  3
*D13
  1

  0
LINE
  5
48D
330
3CE
100
AcDbEntity
  8
画層1
 62
     0
370
    -2
100
AcDbLine
 10
224.6274195918033
 20
176.094797757403
 30
0.0
 11
224.6274195918033
 21
170.9484790070382
 31
0.0
  0
LINE
  5
48E
330
3CE
100
AcDbEntity
  8
画層1
 62
     0
370
    -2
100
AcDbLine
 10
228.8274195918033
 20
176.0947977574032
 30
0.0
 11
228.8274195918033
 21
170.9484790070382
 31
0.0
  0
LINE
  5
48F
330
3CE
100
AcDbEntity
  8
画層1
 62
     0
370
    -2
100
AcDbLine
 10
227.5774195918033
 20
172.1984790070382
 30
0.0
 11
225.8774195918033
 21
172.1984790070382
 31
0.0
  0
LINE
  5
490
330
3CE
100
AcDbEntity
  8
画層1
 62
     0
370
    -2
100
AcDbLine
 10
224.6274195918033
 20
172.1984790070382
 30
0.0
 11
217.1791757417359
 21
172.1984790070382
 31
0.0
  0
INSERT
  5
491
330
3CE
100
AcDbEntity
  8
画層1
 62
     0
370
    -2
100
AcDbBlockReference
  2
_OPEN
 10
228.8274195918033
 20
172.1984790070382
 30
0.0
 41
1.25
 42
1.25
 43
1.25
  0
INSERT
  5
492
330
3CE
100
AcDbEntity
  8
画層1
 62
     0
370
    -2
100
AcDbBlockReference
  2
_OPEN
 10
224.6274195918033
 20
172.1984790070382
 30
0.0
 41
1.25
 42
1.25
 43
1.25
 50
180.0
  0
MTEXT
  5
493
330
3CE
100
AcDbEntity
  8
画層1
 62
     0
100
AcDbMText
 10
220.2148900274501
 20
173.8651456737048
 30
0.0
 40
2.5
 41
0.0
 71
     5
 72
     1
  1
\A1;4.2
  7
KANJI
 73
     1
 44
1.0
1001
ACAD
1000
MTEXTBEGIN
1070
    73
1070
     1
1070
    44
1040
1.0
1070
    74
1070
     0
1000
MTEXTEND
  0
POINT
  5
494
330
3CE
100
AcDbEntity
  8
DEFPOINTS
 62
     0
100
AcDbPoint
 10
224.6274195918033
 20
176.9281310907364
 30
0.0
  0
POINT
  5
495
330
3CE
100
AcDbEntity
  8
DEFPOINTS
 62
     0
100
AcDbPoint
 10
228.8274195918033
 20
176.9281310907365
 30
0.0
  0
POINT
  5
496
330
3CE
100
AcDbEntity
  8
DEFPOINTS
 62
     0
100
AcDbPoint
 10
228.8274195918033
 20
172.1984790070382
 30
0.0
  0
ENDBLK
  5
3DA
330
3CE
100
AcDbEntity
  8
0
100
AcDbBlockEnd
  0
BLOCK
  5
3E5
330
3DB
100
AcDbEntity
  8
0
100
AcDbBlockBegin
  2
*D14
 70
     1
 10
0.0
 20
0.0
 30
0.0
  3
*D14
  1

  0
LINE
  5
43F
330
3DB
100
AcDbEntity
  8
画層1
 62
     0
370
    -2
100
AcDbLine
 10
169.1326879250633
 20
180.2521015394165
 30
0.0
 11
169.1326879250633
 21
167.5597166384658
 31
0.0
  0
LINE
  5
440
330
3DB
100
AcDbEntity
  8
画層1
 62
     0
370
    -2
100
AcDbLine
 10
177.8326879250634
 20
180.2521015394165
 30
0.0
 11
177.8326879250634
 21
167.5597166384658
 31
0.0
  0
LINE
  5
441
330
3DB
100
AcDbEntity
  8
画層1
 62
     0
370
    -2
100
AcDbLine
 10
170.3826879250633
 20
168.8097166384658
 30
0.0
 11
176.5826879250634
 21
168.8097166384658
 31
0.0
  0
INSERT
  5
442
330
3DB
100
AcDbEntity
  8
画層1
 62
     0
370
    -2
100
AcDbBlockReference
  2
_OPEN
 10
169.1326879250633
 20
168.8097166384658
 30
0.0
 41
1.25
 42
1.25
 43
1.25
 50
180.0
  0
INSERT
  5
443
330
3DB
100
AcDbEntity
  8
画層1
 62
     0
370
    -2
100
AcDbBlockReference
  2
_OPEN
 10
177.8326879250634
 20
168.8097166384658
 30
0.0
 41
1.25
 42
1.25
 43
1.25
  0
MTEXT
  5
444
330
3DB
100
AcDbEntity
  8
画層1
 62
     0
370
    -3
100
AcDbMText
 10
173.4826879250633
 20
170.4763833051325
 30
0.0
 40
2.5
 41
0.0
 71
     5
 72
     1
  1
\A1;8.7
  7
KANJI
 73
     1
 44
1.0
1001
ACAD
1000
MTEXTBEGIN
1070
    73
1070
     1
1070
    44
1040
1.0
1070
    74
1070
     0
1000
MTEXTEND
  0
POINT
  5
445
330
3DB
100
AcDbEntity
  8
DEFPOINTS
 62
     0
100
AcDbPoint
 10
169.1326879250633
 20
181.0854348727498
 30
0.0
  0
POINT
  5
446
330
3DB
100
AcDbEntity
  8
DEFPOINTS
 62
     0
100
AcDbPoint
 10
177.8326879250634
 20
181.0854348727498
 30
0.0
  0
POINT
  5
447
330
3DB
100
AcDbEntity
  8
DEFPOINTS
 62
     0
100
AcDbPoint
 10
177.8326879250634
 20
168.8097166384658
 30
0.0
  0
ENDBLK
  5
3E6
330
3DB
100
AcDbEntity
  8
0
100
AcDbBlockEnd
  0
BLOCK
  5
3F1
330
3E7
100
AcDbEntity
  8
0
100
AcDbBlockBegin
  2
*D15
 70
     1
 10
0.0
 20
0.0
 30
0.0
  3
*D15
  1

  0
LINE
  5
448
330
3E7
100
AcDbEntity
  8
画層1
 62
     0
370
    -2
100
AcDbLine
 10
160.4326879250633
 20
180.2521015394162
 30
0.0
 11
160.4326879250633
 21
167.5597166384658
 31
0.0
  0
LINE
  5
449
330
3E7
100
AcDbEntity
  8
画層1
 62
     0
370
    -2
100
AcDbLine
 10
169.1326879250633
 20
180.2521015394162
 30
0.0
 11
169.1326879250633
 21
167.5597166384658
 31
0.0
  0
LINE
  5
44A
330
3E7
100
AcDbEntity
  8
画層1
 62
     0
370
    -2
100
AcDbLine
 10
161.6826879250633
 20
168.8097166384658
 30
0.0
 11
167.8826879250633
 21
168.8097166384658
 31
0.0
  0
INSERT
  5
44B
330
3E7
100
AcDbEntity
  8
画層1
 62
     0
370
    -2
100
AcDbBlockReference
  2
_OPEN
 10
160.4326879250633
 20
168.8097166384658
 30
0.0
 41
1.25
 42
1.25
 43
1.25
 50
180.0
  0
INSERT
  5
44C
330
3E7
100
AcDbEntity
  8
画層1
 62
     0
370
    -2
100
AcDbBlockReference
  2
_OPEN
 10
169.1326879250633
 20
168.8097166384658
 30
0.0
 41
1.25
 42
1.25
 43
1.25
  0
MTEXT
  5
44D
330
3E7
100
AcDbEntity
  8
画層1
 62
     0
370
    -3
100
AcDbMText
 10
164.7826879250632
 20
170.4763833051325
 30
0.0
 40
2.5
 41
0.0
 71
     5
 72
     1
  1
\A1;8.7
  7
KANJI
 73
     1
 44
1.0
1001
ACAD
1000
MTEXTBEGIN
1070
    73
1070
     1
1070
    44
1040
1.0
1070
    74
1070
     0
1000
MTEXTEND
  0
POINT
  5
44E
330
3E7
100
AcDbEntity
  8
DEFPOINTS
 62
     0
100
AcDbPoint
 10
160.4326879250633
 20
181.0854348727496
 30
0.0
  0
POINT
  5
44F
330
3E7
100
AcDbEntity
  8
DEFPOINTS
 62
     0
100
AcDbPoint
 10
169.1326879250633
 20
181.0854348727495
 30
0.0
  0
POINT
  5
450
330
3E7
100
AcDbEntity
  8
DEFPOINTS
 62
     0
100
AcDbPoint
 10
169.1326879250633
 20
168.8097166384658
 30
0.0
  0
ENDBLK
  5
3F2
330
3E7
100
AcDbEntity
  8
0
100
AcDbBlockEnd
  0
BLOCK
  5
3FD
330
3F3
100
AcDbEntity
  8
0
100
AcDbBlockBegin
  2
*D16
 70
     1
 10
0.0
 20
0.0
 30
0.0
  3
*D16
  1

  0
LINE
  5
451
330
3F3
100
AcDbEntity
  8
画層1
 62
     0
370
    -2
100
AcDbLine
 10
155.6326879250631
 20
101.423730767048
 30
0.0
 11
155.6326879250631
 21
85.3331716419899
 31
0.0
  0
LINE
  5
452
330
3F3
100
AcDbEntity
  8
画層1
 62
     0
370
    -2
100
AcDbLine
 10
182.6326879250632
 20
101.423730767048
 30
0.0
 11
182.6326879250632
 21
85.3331716419899
 31
0.0
  0
LINE
  5
453
330
3F3
100
AcDbEntity
  8
画層1
 62
     0
370
    -2
100
AcDbLine
 10
156.8826879250632
 20
86.5831716419899
 30
0.0
 11
181.3826879250632
 21
86.5831716419899
 31
0.0
  0
INSERT
  5
454
330
3F3
100
AcDbEntity
  8
画層1
 62
     0
370
    -2
100
AcDbBlockReference
  2
_OPEN
 10
155.6326879250631
 20
86.5831716419899
 30
0.0
 41
1.25
 42
1.25
 43
1.25
 50
180.0
  0
INSERT
  5
455
330
3F3
100
AcDbEntity
  8
画層1
 62
     0
370
    -2
100
AcDbBlockReference
  2
_OPEN
 10
182.6326879250632
 20
86.5831716419899
 30
0.0
 41
1.25
 42
1.25
 43
1.25
  0
MTEXT
  5
456
330
3F3
100
AcDbEntity
  8
画層1
 62
     0
370
    -3
100
AcDbMText
 10
169.1326879250631
 20
88.24983830865658
 30
0.0
 40
2.5
 41
0.0
 71
     5
 72
     1
  1
\A1;27
  7
KANJI
 73
     1
 44
1.0
1001
ACAD
1000
MTEXTBEGIN
1070
    73
1070
     1
1070
    44
1040
1.0
1070
    74
1070
     0
1000
MTEXTEND
  0
POINT
  5
457
330
3F3
100
AcDbEntity
  8
DEFPOINTS
 62
     0
100
AcDbPoint
 10
155.6326879250631
 20
102.2570641003813
 30
0.0
  0
POINT
  5
458
330
3F3
100
AcDbEntity
  8
DEFPOINTS
 62
     0
100
AcDbPoint
 10
182.6326879250632
 20
102.2570641003813
 30
0.0
  0
POINT
  5
459
330
3F3
100
AcDbEntity
  8
DEFPOINTS
 62
     0
100
AcDbPoint
 10
182.6326879250632
 20
86.5831716419899
 30
0.0
  0
ENDBLK
  5
3FE
330
3F3
100
AcDbEntity
  8
0
100
AcDbBlockEnd
  0
BLOCK
  5
409
330
3FF
100
AcDbEntity
  8
0
100
AcDbBlockBegin
  2
*D17
 70
     1
 10
0.0
 20
0.0
 30
0.0
  3
*D17
  1

  0
LINE
  5
45A
330
3FF
100
AcDbEntity
  8
画層1
 62
     0
370
    -2
100
AcDbLine
 10
182.9735964329213
 20
136.757006713819
 30
0.0
 11
193.2212122483873
 21
136.757006713819
 31
0.0
  0
LINE
  5
45B
330
3FF
100
AcDbEntity
  8
画層1
 62
     0
370
    -2
100
AcDbLine
 10
182.9735964329213
 20
101.7570641003813
 30
0.0
 11
193.2212122483873
 21
101.7570641003813
 31
0.0
  0
LINE
  5
45C
330
3FF
100
AcDbEntity
  8
画層1
 62
     0
370
    -2
100
AcDbLine
 10
191.9712122483873
 20
135.507006713819
 30
0.0
 11
191.9712122483873
 21
103.0070641003813
 31
0.0
  0
INSERT
  5
45D
330
3FF
100
AcDbEntity
  8
画層1
 62
     0
370
    -2
100
AcDbBlockReference
  2
_OPEN
 10
191.9712122483873
 20
136.757006713819
 30
0.0
 41
1.25
 42
1.25
 43
1.25
 50
90.0
  0
INSERT
  5
45E
330
3FF
100
AcDbEntity
  8
画層1
 62
     0
370
    -2
100
AcDbBlockReference
  2
_OPEN
 10
191.9712122483873
 20
101.7570641003813
 30
0.0
 41
1.25
 42
1.25
 43
1.25
 50
270.0
  0
MTEXT
  5
45F
330
3FF
100
AcDbEntity
  8
画層1
 62
     0
370
    -3
100
AcDbMText
 10
190.3045455817206
 20
119.2570354071002
 30
0.0
 40
2.5
 41
0.0
 71
     5
 72
     1
  1
\A1;35
  7
KANJI
 11
0.0000000000000001
 21
1.0
 31
0.0
 73
     1
 44
1.0
1001
ACAD
1000
MTEXTBEGIN
1070
    73
1070
     1
1070
    44
1040
1.0
1070
    74
1070
     0
1000
MTEXTEND
  0
POINT
  5
460
330
3FF
100
AcDbEntity
  8
DEFPOINTS
 62
     0
100
AcDbPoint
 10
182.140263099588
 20
136.757006713819
 30
0.0
  0
POINT
  5
461
330
3FF
100
AcDbEntity
  8
DEFPOINTS
 62
     0
100
AcDbPoint
 10
182.140263099588
 20
101.7570641003813
 30
0.0
  0
POINT
  5
462
330
3FF
100
AcDbEntity
  8
DEFPOINTS
 62
     0
100
AcDbPoint
 10
191.9712122483873
 20
101.7570641003813
 30
0.0
  0
ENDBLK
  5
40A
330
3FF
100
AcDbEntity
  8
0
100
AcDbBlockEnd
  0
BLOCK
  5
415
330
40B
100
AcDbEntity
  8
0
100
AcDbBlockBegin
  2
*D18
 70
     1
 10
0.0
 20
0.0
 30
0.0
  3
*D18
  1

  0
LINE
  5
497
330
40B
100
AcDbEntity
  8
画層1
 62
     0
370
    -2
100
AcDbLine
 10
230.3607529251366
 20
176.2281310907364
 30
0.0
 11
237.4515306396752
 21
176.2281310907364
 31
0.0
  0
LINE
  5
498
330
40B
100
AcDbEntity
  8
画層1
 62
     0
370
    -2
100
AcDbLine
 10
230.3607529251366
 20
187.2281310907363
 30
0.0
 11
237.4515306396752
 21
187.2281310907363
 31
0.0
  0
LINE
  5
499
330
40B
100
AcDbEntity
  8
画層1
 62
     0
370
    -2
100
AcDbLine
 10
236.2015306396752
 20
177.4781310907364
 30
0.0
 11
236.2015306396752
 21
185.9781310907363
 31
0.0
  0
INSERT
  5
49A
330
40B
100
AcDbEntity
  8
画層1
 62
     0
370
    -2
100
AcDbBlockReference
  2
_OPEN
 10
236.2015306396752
 20
176.2281310907364
 30
0.0
 41
1.25
 42
1.25
 43
1.25
 50
270.0
  0
INSERT
  5
49B
330
40B
100
AcDbEntity
  8
画層1
 62
     0
370
    -2
100
AcDbBlockReference
  2
_OPEN
 10
236.2015306396752
 20
187.2281310907363
 30
0.0
 41
1.25
 42
1.25
 43
1.25
 50
90.0
  0
MTEXT
  5
49C
330
40B
100
AcDbEntity
  8
画層1
 62
     0
370
    -3
100
AcDbMText
 10
234.5348639730085
 20
181.7281310907364
 30
0.0
 40
2.5
 41
0.0
 71
     5
 72
     1
  1
\A1;11
  7
KANJI
 11
0.0000000000000001
 21
1.0
 31
0.0
 73
     1
 44
1.0
1001
ACAD
1000
MTEXTBEGIN
1070
    73
1070
     1
1070
    44
1040
1.0
1070
    74
1070
     0
1000
MTEXTEND
  0
POINT
  5
49D
330
40B
100
AcDbEntity
  8
DEFPOINTS
 62
     0
100
AcDbPoint
 10
229.5274195918032
 20
176.2281310907364
 30
0.0
  0
POINT
  5
49E
330
40B
100
AcDbEntity
  8
DEFPOINTS
 62
     0
100
AcDbPoint
 10
229.5274195918032
 20
187.2281310907363
 30
0.0
  0
POINT
  5
49F
330
40B
100
AcDbEntity
  8
DEFPOINTS
 62
     0
100
AcDbPoint
 10
236.2015306396752
 20
187.2281310907363
 30
0.0
  0
ENDBLK
  5
416
330
40B
100
AcDbEntity
  8
0
100
AcDbBlockEnd
  0
BLOCK
  5
421
330
417
100
AcDbEntity
  8
0
100
AcDbBlockBegin
  2
*D19
 70
     1
 10
0.0
 20
0.0
 30
0.0
  3
*D19
  1

  0
LINE
  5
46C
330
417
100
AcDbEntity
  8
画層1
 62
     0
370
    -2
100
AcDbLine
 10
181.4660212583966
 20
176.9066888170115
 30
0.0
 11
195.7002671988575
 21
176.9066888170114
 31
0.0
  0
LINE
  5
46D
330
417
100
AcDbEntity
  8
画層1
 62
     0
370
    -2
100
AcDbLine
 10
183.4660212583965
 20
187.9066888170114
 30
0.0
 11
195.7002671988575
 21
187.9066888170114
 31
0.0
  0
LINE
  5
46E
330
417
100
AcDbEntity
  8
画層1
 62
     0
370
    -2
100
AcDbLine
 10
194.4502671988575
 20
178.1566888170115
 30
0.0
 11
194.4502671988575
 21
186.6566888170114
 31
0.0
  0
INSERT
  5
46F
330
417
100
AcDbEntity
  8
画層1
 62
     0
370
    -2
100
AcDbBlockReference
  2
_OPEN
 10
194.4502671988575
 20
176.9066888170114
 30
0.0
 41
1.25
 42
1.25
 43
1.25
 50
270.0
  0
INSERT
  5
470
330
417
100
AcDbEntity
  8
画層1
 62
     0
370
    -2
100
AcDbBlockReference
  2
_OPEN
 10
194.4502671988575
 20
187.9066888170114
 30
0.0
 41
1.25
 42
1.25
 43
1.25
 50
90.0
  0
MTEXT
  5
471
330
417
100
AcDbEntity
  8
画層1
 62
     0
370
    -3
100
AcDbMText
 10
192.7836005321908
 20
182.4066888170115
 30
0.0
 40
2.5
 41
0.0
 71
     5
 72
     1
  1
\A1;11
  7
KANJI
 11
0.0000000000000001
 21
1.0
 31
0.0
 73
     1
 44
1.0
1001
ACAD
1000
MTEXTBEGIN
1070
    73
1070
     1
1070
    44
1040
1.0
1070
    74
1070
     0
1000
MTEXTEND
  0
POINT
  5
472
330
417
100
AcDbEntity
  8
DEFPOINTS
 62
     0
100
AcDbPoint
 10
180.6326879250633
 20
176.9066888170115
 30
0.0
  0
POINT
  5
473
330
417
100
AcDbEntity
  8
DEFPOINTS
 62
     0
100
AcDbPoint
 10
182.6326879250632
 20
187.9066888170114
 30
0.0
  0
POINT
  5
474
330
417
100
AcDbEntity
  8
DEFPOINTS
 62
     0
100
AcDbPoint
 10
194.4502671988575
 20
187.9066888170114
 30
0.0
  0
ENDBLK
  5
422
330
417
100
AcDbEntity
  8
0
100
AcDbBlockEnd
  0
ENDSEC
  0
SECTION
  2
ENTITIES
  0
LINE
  5
59
330
22
100
AcDbEntity
  8
_0-1_
  6
Continuous
 62
     3
100
AcDbLine
 10
109.9137829426253
 20
10.0820392438058
 30
0.0
 11
109.5910479758758
 21
10.0820392438058
 31
0.0
  0
LINE
  5
5A
330
22
100
AcDbEntity
  8
_0-1_
  6
Continuous
 62
     3
100
AcDbLine
 10
109.5910479758758
 20
10.0820392438058
 30
0.0
 11
109.5910479758758
 21
280.3556131669723
 31
0.0
  0
LINE
  5
5B
330
22
100
AcDbEntity
  8
_0-1_
  6
Continuous
 62
     3
100
AcDbLine
 10
289.7482074636524
 20
280.3556131669723
 30
0.0
 11
289.7482074636524
 21
10.0820392438058
 31
0.0
  0
LINE
  5
5C
330
22
100
AcDbEntity
  8
_0-1_
  6
Continuous
 62
     3
100
AcDbLine
 10
109.5910479758758
 20
280.3556131669723
 30
0.0
 11
289.7482074636524
 21
280.3556131669723
 31
0.0
  0
LINE
  5
5D
330
22
100
AcDbEntity
  8
_0-1_
  6
Continuous
 62
     3
100
AcDbLine
 10
289.7482074636524
 20
10.0820392438058
 30
0.0
 11
109.5910479758758
 21
10.0820392438058
 31
0.0
  0
LINE
  5
5E
330
22
100
AcDbEntity
  8
_0-1_
  6
Continuous
 62
     3
100
AcDbLine
 10
289.7482074636524
 20
25.08203924380581
 30
0.0
 11
109.5910479758758
 21
25.08203924380581
 31
0.0
  0
LINE
  5
5F
330
22
100
AcDbEntity
  8
_0-1_
  6
Continuous
 62
     3
100
AcDbLine
 10
169.5910479758758
 20
10.0820392438058
 30
0.0
 11
169.5910479758758
 21
25.08203924380581
 31
0.0
  0
LINE
  5
60
330
22
100
AcDbEntity
  8
_0-1_
  6
Continuous
 62
     3
100
AcDbLine
 10
229.5910479758759
 20
10.0820392438058
 30
0.0
 11
229.5910479758759
 21
25.08203924380581
 31
0.0
  0
TEXT
  5
61
330
22
100
AcDbEntity
  8
_0-1_
 62
     7
100
AcDbText
 10
111.5363389395928
 20
21.57720765544398
 30
0.0
 40
2.0
  1
ＴＩＴＬＥ
100
AcDbText
  0
TEXT
  5
62
330
22
100
AcDbEntity
  8
_0-1_
 62
     7
100
AcDbText
 10
171.4616892036262
 20
21.32542046946065
 30
0.0
 40
2.0
  1
ＭＯＤＥＬ
100
AcDbText
  0
TEXT
  5
63
330
22
100
AcDbEntity
  8
_0-1_
 62
     7
100
AcDbText
 10
236.2458655108208
 20
15.19894081377248
 30
0.0
 40
4.0
  1
日伸制御機工株式会社
100
AcDbText
  0
TEXT
  5
64
330
22
100
AcDbEntity
  8
_0-1_
 62
     7
100
AcDbText
 10
119.5027624309392
 20
14.37845303867405
 30
0.0
 40
4.0
  1
スパークケンチャー
100
AcDbText
  0
TEXT
  5
19E
330
22
100
AcDbEntity
  8
_0-1_
 62
     7
100
AcDbText
 10
183.5469613259668
 20
14.8425414364641
 30
0.0
 40
4.0
  1
SQ23150 3FK
100
AcDbText
  0
LINE
  5
326
330
22
100
AcDbEntity
  8
0
 62
     7
100
AcDbLine
 10
155.6326879250631
 20
208.9066888170114
 30
0.0
 11
182.6326879250632
 21
208.9066888170114
 31
0.0
  0
LINE
  5
327
330
22
100
AcDbEntity
  8
0
 62
     7
100
AcDbLine
 10
182.6326879250632
 20
208.9066888170114
 30
0.0
 11
182.6326879250632
 21
187.9066888170114
 31
0.0
  0
LINE
  5
328
330
22
100
AcDbEntity
  8
0
 62
     7
100
AcDbLine
 10
155.6326879250631
 20
187.9066888170114
 30
0.0
 11
182.6326879250632
 21
187.9066888170114
 31
0.0
  0
LINE
  5
329
330
22
100
AcDbEntity
  8
0
 62
     7
100
AcDbLine
 10
155.6326879250631
 20
208.9066888170114
 30
0.0
 11
155.6326879250631
 21
187.9066888170114
 31
0.0
  0
LINE
  5
32A
330
22
100
AcDbEntity
  8
0
 62
     7
100
AcDbLine
 10
155.6326879250631
 20
136.2570641003813
 30
0.0
 11
155.6326879250631
 21
102.2570641003813
 31
0.0
  0
LINE
  5
32B
330
22
100
AcDbEntity
  8
0
 62
     7
100
AcDbLine
 10
182.6326879250632
 20
136.2570641003813
 30
0.0
 11
182.6326879250632
 21
102.2570641003813
 31
0.0
  0
LINE
  5
32C
330
22
100
AcDbEntity
  8
0
 62
     7
100
AcDbLine
 10
156.1326879250632
 20
101.7570641003813
 30
0.0
 11
182.1326879250632
 21
101.7570641003813
 31
0.0
  0
ARC
  5
32D
330
22
100
AcDbEntity
  8
0
 62
     7
100
AcDbCircle
 10
182.1326879250632
 20
102.2570641003813
 30
0.0
 40
0.5
100
AcDbArc
 50
270.0
 51
0.0
  0
ARC
  5
32E
330
22
100
AcDbEntity
  8
0
 62
     7
100
AcDbCircle
 10
156.1326879250632
 20
102.2570641003813
 30
0.0
 40
0.5
100
AcDbArc
 50
180.0
 51
270.0
  0
LINE
  5
32F
330
22
100
AcDbEntity
  8
0
 62
     7
100
AcDbLine
 10
156.6326879250631
 20
102.7570641003813
 30
0.0
 11
181.6326879250631
 21
102.7570641003813
 31
0.0
  0
LINE
  5
330
330
22
100
AcDbEntity
  8
0
 62
     7
100
AcDbLine
 10
181.6326879250631
 20
135.7570641003813
 30
0.0
 11
181.6326879250631
 21
102.7570641003813
 31
0.0
  0
LINE
  5
331
330
22
100
AcDbEntity
  8
0
 62
     7
100
AcDbLine
 10
156.6326879250631
 20
135.7570641003813
 30
0.0
 11
158.3326879250631
 21
135.7570641003813
 31
0.0
  0
LINE
  5
332
330
22
100
AcDbEntity
  8
0
 62
     7
100
AcDbLine
 10
156.6326879250631
 20
135.7570641003813
 30
0.0
 11
158.3326879250631
 21
135.7570641003813
 31
0.0
  0
LINE
  5
333
330
22
100
AcDbEntity
  8
0
 62
     7
100
AcDbLine
 10
162.5326879250632
 20
135.7570641003813
 30
0.0
 11
167.032687925063
 21
135.7570641003813
 31
0.0
  0
LINE
  5
334
330
22
100
AcDbEntity
  8
0
 62
     7
100
AcDbLine
 10
171.2326879250632
 20
135.7570641003813
 30
0.0
 11
175.7326879250632
 21
135.7570641003813
 31
0.0
  0
LINE
  5
335
330
22
100
AcDbEntity
  8
0
 62
     7
100
AcDbLine
 10
179.9326879250633
 20
135.7570641003813
 30
0.0
 11
181.6326879250631
 21
135.7570641003813
 31
0.0
  0
LINE
  5
336
330
22
100
AcDbEntity
  8
0
 62
     7
100
AcDbLine
 10
156.6326879250631
 20
135.7570641003813
 30
0.0
 11
156.6326879250631
 21
102.7570641003813
 31
0.0
  0
LINE
  5
337
330
22
100
AcDbEntity
  8
0
 62
     7
100
AcDbLine
 10
216.3109515484367
 20
101.7570641003813
 30
0.0
 11
237.3109515484367
 21
101.7570641003813
 31
0.0
  0
LINE
  5
338
330
22
100
AcDbEntity
  8
0
 62
     7
100
AcDbLine
 10
216.3109515484367
 20
136.7570641003812
 30
0.0
 11
237.3109515484367
 21
136.7570641003812
 31
0.0
  0
LINE
  5
339
330
22
100
AcDbEntity
  8
0
 62
     7
100
AcDbLine
 10
216.3109515484367
 20
136.7570641003812
 30
0.0
 11
216.3109515484367
 21
101.7570641003813
 31
0.0
  0
LINE
  5
33A
330
22
100
AcDbEntity
  8
0
 62
     7
100
AcDbLine
 10
237.3109515484367
 20
136.7570641003812
 30
0.0
 11
237.3109515484367
 21
101.7570641003813
 31
0.0
  0
POINT
  5
33F
330
22
100
AcDbEntity
  8
DEFPOINTS
  6
ByBlock
 62
     7
100
AcDbPoint
 10
182.6326879250632
 20
102.2570641003813
 30
0.0
  0
POINT
  5
340
330
22
100
AcDbEntity
  8
DEFPOINTS
  6
ByBlock
 62
     7
100
AcDbPoint
 10
155.6326879250631
 20
102.2570641003813
 30
0.0
  0
POINT
  5
341
330
22
100
AcDbEntity
  8
DEFPOINTS
  6
ByBlock
 62
     7
100
AcDbPoint
 10
182.1326879250632
 20
101.7570641003813
 30
0.0
  0
LINE
  5
344
330
22
100
AcDbEntity
  8
0
  6
ByBlock
 62
     7
100
AcDbLine
 10
184.6660212583964
 20
187.9066888170114
 30
0.0
 11
195.7002671988575
 21
187.9066888170114
 31
0.0
  0
POINT
  5
345
330
22
100
AcDbEntity
  8
DEFPOINTS
  6
ByBlock
 62
     7
100
AcDbPoint
 10
183.8326879250631
 20
187.9066888170114
 30
0.0
  0
LINE
  5
346
330
22
100
AcDbEntity
  8
0
  6
ByBlock
 62
     7
100
AcDbLine
 10
184.6660212583964
 20
187.9066888170114
 30
0.0
 11
195.7002671988575
 21
187.9066888170114
 31
0.0
  0
LINE
  5
347
330
22
100
AcDbEntity
  8
0
  6
ByBlock
 62
     7
100
AcDbLine
 10
184.6660212583964
 20
208.9066888170114
 30
0.0
 11
195.7002671988575
 21
208.9066888170114
 31
0.0
  0
LINE
  5
348
330
22
100
AcDbEntity
  8
0
  6
ByBlock
 62
     7
100
AcDbLine
 10
194.4502671988575
 20
189.1566888170114
 30
0.0
 11
194.4502671988575
 21
207.6566888170114
 31
0.0
  0
INSERT
  5
349
330
22
100
AcDbEntity
  8
0
  6
ByBlock
 62
     7
100
AcDbBlockReference
  2
_OPEN
 10
194.4502671988575
 20
187.9066888170114
 30
0.0
 41
1.25
 42
1.25
 43
1.25
 50
270.0
  0
INSERT
  5
34A
330
22
100
AcDbEntity
  8
0
  6
ByBlock
 62
     7
100
AcDbBlockReference
  2
_OPEN
 10
194.4502671988575
 20
208.9066888170114
 30
0.0
 41
1.25
 42
1.25
 43
1.25
 50
90.0
  0
MTEXT
  5
34B
330
22
100
AcDbEntity
  8
0
  6
ByBlock
 62
     7
100
AcDbMText
 10
192.7836005321908
 20
198.4066888170114
 30
0.0
 40
2.5
 41
0.0
 71
     5
 72
     5
  1
\A1;21
  7
KANJI
 11
0.0
 21
1.0
 31
0.0
 73
     1
 44
1.0
1001
ACAD
1000
MTEXTBEGIN
1070
    73
1070
     1
1070
    44
1040
1.0
1070
    74
1070
     0
1000
MTEXTEND
  0
POINT
  5
34C
330
22
100
AcDbEntity
  8
DEFPOINTS
  6
ByBlock
 62
     7
100
AcDbPoint
 10
183.8326879250631
 20
187.9066888170114
 30
0.0
  0
POINT
  5
34D
330
22
100
AcDbEntity
  8
DEFPOINTS
  6
ByBlock
 62
     7
100
AcDbPoint
 10
183.8326879250631
 20
208.9066888170114
 30
0.0
  0
POINT
  5
34E
330
22
100
AcDbEntity
  8
DEFPOINTS
  6
ByBlock
 62
     7
100
AcDbPoint
 10
194.4502671988575
 20
208.9066888170114
 30
0.0
  0
POINT
  5
34F
330
22
100
AcDbEntity
  8
DEFPOINTS
  6
ByBlock
 62
     7
100
AcDbPoint
 10
183.8326879250631
 20
187.9066888170114
 30
0.0
  0
LINE
  5
351
330
22
100
AcDbEntity
  8
0
 62
     7
100
AcDbLine
 10
156.1326879250632
 20
136.7570641003813
 30
0.0
 11
156.9326879250632
 21
136.7570641003813
 31
0.0
  0
LINE
  5
352
330
22
100
AcDbEntity
  8
0
 62
     7
100
AcDbLine
 10
156.1326879250632
 20
136.7570641003813
 30
0.0
 11
156.9326879250632
 21
136.7570641003813
 31
0.0
  0
LINE
  5
353
330
22
100
AcDbEntity
  8
0
 62
     7
100
AcDbLine
 10
163.9326879250632
 20
136.7570641003813
 30
0.0
 11
165.6326879250632
 21
136.7570641003813
 31
0.0
  0
LINE
  5
354
330
22
100
AcDbEntity
  8
0
 62
     7
100
AcDbLine
 10
172.6326879250632
 20
136.7570641003813
 30
0.0
 11
174.3326879250633
 21
136.7570641003813
 31
0.0
  0
LINE
  5
355
330
22
100
AcDbEntity
  8
0
 62
     7
100
AcDbLine
 10
181.3326879250633
 20
136.7570641003813
 30
0.0
 11
182.1326879250631
 21
136.7570641003813
 31
0.0
  0
ARC
  5
356
330
22
100
AcDbEntity
  8
0
 62
     7
100
AcDbCircle
 10
182.1326879250631
 20
136.2570641003813
 30
0.0
 40
0.5
100
AcDbArc
 50
0.0
 51
90.0
  0
ARC
  5
357
330
22
100
AcDbEntity
  8
0
 62
     7
100
AcDbCircle
 10
156.1326879250632
 20
136.2570641003813
 30
0.0
 40
0.5
100
AcDbArc
 50
90.0
 51
180.0
  0
LINE
  5
358
330
22
100
AcDbEntity
  8
0
100
AcDbLine
 10
230.2274195918032
 20
186.2281310907363
 30
0.0
 11
230.2274195918033
 21
176.9281310907363
 31
0.0
  0
LINE
  5
359
330
22
100
AcDbEntity
  8
0
100
AcDbLine
 10
223.2274195918032
 20
186.2281310907363
 30
0.0
 11
223.2274195918033
 21
176.9281310907363
 31
0.0
  0
LINE
  5
35A
330
22
100
AcDbEntity
  8
0
100
AcDbLine
 10
229.2274195918032
 20
187.2281310907363
 30
0.0
 11
224.2274195918032
 21
187.2281310907363
 31
0.0
  0
ARC
  5
35B
330
22
100
AcDbEntity
  8
0
100
AcDbCircle
 10
224.2274195918032
 20
186.2281310907363
 30
0.0
 40
1.0
100
AcDbArc
 50
90.0
 51
180.0
  0
ARC
  5
35C
330
22
100
AcDbEntity
  8
0
100
AcDbCircle
 10
229.2274195918032
 20
186.2281310907363
 30
0.0
 40
1.0
100
AcDbArc
 50
0.0
 51
90.0
  0
ARC
  5
35D
330
22
100
AcDbEntity
  8
0
100
AcDbCircle
 10
226.7274195918034
 20
180.1281310907361
 30
0.0
 40
2.1
100
AcDbArc
 50
0.0
 51
180.0
  0
LINE
  5
35E
330
22
100
AcDbEntity
  8
0
100
AcDbLine
 10
228.8274195918033
 20
176.9281310907363
 30
0.0
 11
228.8274195918032
 21
180.1281310907361
 31
0.0
  0
LINE
  5
35F
330
22
100
AcDbEntity
  8
0
100
AcDbLine
 10
224.6274195918033
 20
176.9281310907363
 30
0.0
 11
224.627419591803
 21
180.1281310907361
 31
0.0
  0
LINE
  5
360
330
22
100
AcDbEntity
  8
0
100
AcDbLine
 10
226.7274195918033
 20
180.849385034998
 30
0.0
 11
226.7274195918033
 21
179.4068771464747
 31
0.0
  0
LINE
  5
361
330
22
100
AcDbEntity
  8
0
100
AcDbLine
 10
227.448673536065
 20
180.1281310907364
 30
0.0
 11
226.0061656475416
 21
180.1281310907364
 31
0.0
  0
ARC
  5
362
330
22
100
AcDbEntity
  8
0
100
AcDbCircle
 10
229.5274195918032
 20
176.9281310907363
 30
0.0
 40
0.6999999999999318
100
AcDbArc
 50
180.0
 51
0.0
  0
ARC
  5
363
330
22
100
AcDbEntity
  8
0
100
AcDbCircle
 10
223.9274195918031
 20
176.9281310907363
 30
0.0
 40
0.6999999999999318
100
AcDbArc
 50
180.0
 51
0.0
  0
LINE
  5
364
330
22
100
AcDbEntity
  8
0
100
AcDbLine
 10
172.6326879250632
 20
186.9066888170114
 30
0.0
 11
172.6326879250632
 21
177.6066888170114
 31
0.0
  0
LINE
  5
365
330
22
100
AcDbEntity
  8
0
100
AcDbLine
 10
165.6326879250632
 20
186.9066888170114
 30
0.0
 11
165.6326879250632
 21
177.6066888170114
 31
0.0
  0
LINE
  5
366
330
22
100
AcDbEntity
  8
0
100
AcDbLine
 10
171.6326879250632
 20
187.9066888170114
 30
0.0
 11
166.6326879250632
 21
187.9066888170114
 31
0.0
  0
ARC
  5
367
330
22
100
AcDbEntity
  8
0
100
AcDbCircle
 10
166.6326879250632
 20
186.9066888170114
 30
0.0
 40
1.0
100
AcDbArc
 50
90.0
 51
180.0
  0
ARC
  5
368
330
22
100
AcDbEntity
  8
0
100
AcDbCircle
 10
171.6326879250632
 20
186.9066888170114
 30
0.0
 40
1.0
100
AcDbArc
 50
0.0
 51
90.0
  0
ARC
  5
369
330
22
100
AcDbEntity
  8
0
100
AcDbCircle
 10
169.1326879250634
 20
180.8066888170112
 30
0.0
 40
2.1
100
AcDbArc
 50
0.0
 51
180.0
  0
LINE
  5
36A
330
22
100
AcDbEntity
  8
0
100
AcDbLine
 10
171.2326879250632
 20
177.6066888170114
 30
0.0
 11
171.2326879250632
 21
180.8066888170112
 31
0.0
  0
LINE
  5
36B
330
22
100
AcDbEntity
  8
0
100
AcDbLine
 10
167.0326879250632
 20
177.6066888170114
 30
0.0
 11
167.032687925063
 21
180.8066888170112
 31
0.0
  0
LINE
  5
36C
330
22
100
AcDbEntity
  8
0
100
AcDbLine
 10
169.1326879250633
 20
181.5279427612731
 30
0.0
 11
169.1326879250633
 21
180.0854348727498
 31
0.0
  0
LINE
  5
36D
330
22
100
AcDbEntity
  8
0
100
AcDbLine
 10
169.8539418693249
 20
180.8066888170115
 30
0.0
 11
168.4114339808016
 21
180.8066888170115
 31
0.0
  0
ARC
  5
36E
330
22
100
AcDbEntity
  8
0
100
AcDbCircle
 10
171.9326879250632
 20
177.6066888170114
 30
0.0
 40
0.6999999999999318
100
AcDbArc
 50
180.0
 51
0.0
  0
ARC
  5
36F
330
22
100
AcDbEntity
  8
0
100
AcDbCircle
 10
166.332687925063
 20
177.6066888170114
 30
0.0
 40
0.6999999999999318
100
AcDbArc
 50
180.0
 51
0.0
  0
LINE
  5
370
330
22
100
AcDbEntity
  8
0
100
AcDbLine
 10
163.9326879250631
 20
186.9066888170111
 30
0.0
 11
163.9326879250632
 21
177.6066888170112
 31
0.0
  0
LINE
  5
371
330
22
100
AcDbEntity
  8
0
100
AcDbLine
 10
156.9326879250631
 20
186.9066888170111
 30
0.0
 11
156.9326879250632
 21
177.6066888170112
 31
0.0
  0
LINE
  5
372
330
22
100
AcDbEntity
  8
0
100
AcDbLine
 10
162.9326879250631
 20
187.9066888170111
 30
0.0
 11
157.9326879250631
 21
187.9066888170111
 31
0.0
  0
ARC
  5
373
330
22
100
AcDbEntity
  8
0
100
AcDbCircle
 10
157.9326879250631
 20
186.9066888170111
 30
0.0
 40
1.0
100
AcDbArc
 50
90.0
 51
180.0
  0
ARC
  5
374
330
22
100
AcDbEntity
  8
0
100
AcDbCircle
 10
162.9326879250631
 20
186.9066888170111
 30
0.0
 40
1.0
100
AcDbArc
 50
0.0
 51
90.0
  0
ARC
  5
375
330
22
100
AcDbEntity
  8
0
100
AcDbCircle
 10
160.4326879250634
 20
180.806688817011
 30
0.0
 40
2.1
100
AcDbArc
 50
0.0
 51
180.0
  0
LINE
  5
376
330
22
100
AcDbEntity
  8
0
100
AcDbLine
 10
162.5326879250633
 20
177.6066888170112
 30
0.0
 11
162.5326879250632
 21
180.806688817011
 31
0.0
  0
LINE
  5
377
330
22
100
AcDbEntity
  8
0
100
AcDbLine
 10
158.3326879250632
 20
177.6066888170112
 30
0.0
 11
158.332687925063
 21
180.806688817011
 31
0.0
  0
LINE
  5
378
330
22
100
AcDbEntity
  8
0
100
AcDbLine
 10
160.4326879250633
 20
181.5279427612729
 30
0.0
 11
160.4326879250633
 21
180.0854348727496
 31
0.0
  0
LINE
  5
379
330
22
100
AcDbEntity
  8
0
100
AcDbLine
 10
161.1539418693249
 20
180.8066888170112
 30
0.0
 11
159.7114339808016
 21
180.8066888170112
 31
0.0
  0
ARC
  5
37A
330
22
100
AcDbEntity
  8
0
100
AcDbCircle
 10
163.2326879250632
 20
177.6066888170112
 30
0.0
 40
0.6999999999999318
100
AcDbArc
 50
180.0
 51
0.0
  0
ARC
  5
37B
330
22
100
AcDbEntity
  8
0
100
AcDbCircle
 10
157.632687925063
 20
177.6066888170112
 30
0.0
 40
0.6999999999999318
100
AcDbArc
 50
180.0
 51
0.0
  0
LINE
  5
37C
330
22
100
AcDbEntity
  8
0
100
AcDbLine
 10
181.3326879250633
 20
186.9066888170114
 30
0.0
 11
181.3326879250634
 21
177.6066888170114
 31
0.0
  0
LINE
  5
37D
330
22
100
AcDbEntity
  8
0
100
AcDbLine
 10
174.3326879250633
 20
186.9066888170114
 30
0.0
 11
174.3326879250634
 21
177.6066888170114
 31
0.0
  0
LINE
  5
37E
330
22
100
AcDbEntity
  8
0
100
AcDbLine
 10
180.3326879250633
 20
187.9066888170114
 30
0.0
 11
175.3326879250633
 21
187.9066888170114
 31
0.0
  0
ARC
  5
37F
330
22
100
AcDbEntity
  8
0
100
AcDbCircle
 10
175.3326879250633
 20
186.9066888170114
 30
0.0
 40
1.0
100
AcDbArc
 50
90.0
 51
180.0
  0
ARC
  5
380
330
22
100
AcDbEntity
  8
0
100
AcDbCircle
 10
180.3326879250633
 20
186.9066888170114
 30
0.0
 40
1.0
100
AcDbArc
 50
0.0
 51
90.0
  0
ARC
  5
381
330
22
100
AcDbEntity
  8
0
100
AcDbCircle
 10
177.8326879250635
 20
180.8066888170112
 30
0.0
 40
2.1
100
AcDbArc
 50
0.0
 51
180.0
  0
LINE
  5
382
330
22
100
AcDbEntity
  8
0
100
AcDbLine
 10
179.9326879250634
 20
177.6066888170114
 30
0.0
 11
179.9326879250633
 21
180.8066888170112
 31
0.0
  0
LINE
  5
383
330
22
100
AcDbEntity
  8
0
100
AcDbLine
 10
175.7326879250633
 20
177.6066888170114
 30
0.0
 11
175.7326879250631
 21
180.8066888170112
 31
0.0
  0
LINE
  5
384
330
22
100
AcDbEntity
  8
0
100
AcDbLine
 10
177.8326879250634
 20
181.5279427612731
 30
0.0
 11
177.8326879250634
 21
180.0854348727498
 31
0.0
  0
LINE
  5
385
330
22
100
AcDbEntity
  8
0
100
AcDbLine
 10
178.553941869325
 20
180.8066888170115
 30
0.0
 11
177.1114339808017
 21
180.8066888170115
 31
0.0
  0
ARC
  5
386
330
22
100
AcDbEntity
  8
0
100
AcDbCircle
 10
180.6326879250633
 20
177.6066888170114
 30
0.0
 40
0.6999999999999318
100
AcDbArc
 50
180.0
 51
0.0
  0
ARC
  5
387
330
22
100
AcDbEntity
  8
0
100
AcDbCircle
 10
175.0326879250632
 20
177.6066888170114
 30
0.0
 40
0.6999999999999318
100
AcDbArc
 50
180.0
 51
0.0
  0
LINE
  5
388
330
22
100
AcDbEntity
  8
0
100
AcDbLine
 10
215.8109515484367
 20
137.2570641003812
 30
0.0
 11
206.310951548437
 21
137.2570641003812
 31
0.0
  0
LINE
  5
389
330
22
100
AcDbEntity
  8
0
100
AcDbLine
 10
215.5109515484368
 20
136.4570641003812
 30
0.0
 11
206.310951548437
 21
136.4570641003812
 31
0.0
  0
LINE
  5
38A
330
22
100
AcDbEntity
  8
0
100
AcDbLine
 10
206.310951548437
 20
137.2570641003812
 30
0.0
 11
206.310951548437
 21
136.4570641003812
 31
0.0
  0
LINE
  5
38B
330
22
100
AcDbEntity
  8
0
100
AcDbLine
 10
216.3109515484367
 20
135.7570641003811
 30
0.0
 11
216.3109515484367
 21
135.7570641003811
 31
0.0
  0
ARC
  5
38C
330
22
100
AcDbEntity
  8
0
100
AcDbCircle
 10
215.8109515484367
 20
136.7570641003812
 30
0.0
 40
0.5
100
AcDbArc
 50
0.0
 51
90.0
  0
LINE
  5
38D
330
22
100
AcDbEntity
  8
0
100
AcDbLine
 10
216.3109515484367
 20
135.7570641003811
 30
0.0
 11
216.3109515484367
 21
135.7570641003811
 31
0.0
  0
ARC
  5
38E
330
22
100
AcDbEntity
  8
0
100
AcDbCircle
 10
216.010951548437
 20
135.457064100381
 30
0.0
 40
0.5
100
AcDbArc
 50
180.0
 51
270.0
  0
LINE
  5
38F
330
22
100
AcDbEntity
  8
0
100
AcDbLine
 10
215.5109515484365
 20
136.4570641003812
 30
0.0
 11
215.510951548437
 21
135.457064100381
 31
0.0
  0
LINE
  5
390
330
22
100
AcDbEntity
  8
0
100
AcDbLine
 10
216.3109515484367
 20
136.7570641003812
 30
0.0
 11
216.3109515484367
 21
135.7570641003811
 31
0.0
  0
LINE
  5
391
330
22
100
AcDbEntity
  8
画層1
100
AcDbLine
 10
216.010951548437
 20
134.957064100381
 30
0.0
 11
216.3109515484367
 21
134.957064100381
 31
0.0
  0
LINE
  5
392
330
22
100
AcDbEntity
  8
画層1
100
AcDbLine
 10
156.9326879250631
 20
137.2570641003813
 30
0.0
 11
156.9326879250632
 21
136.4570641003812
 31
0.0
  0
LINE
  5
393
330
22
100
AcDbEntity
  8
画層1
100
AcDbLine
 10
163.9326879250632
 20
137.2570641003813
 30
0.0
 11
163.9326879250631
 21
136.4570641003813
 31
0.0
  0
LINE
  5
394
330
22
100
AcDbEntity
  8
0
 62
     7
100
AcDbLine
 10
156.9326879250632
 20
137.2570641003813
 30
0.0
 11
163.9326879250631
 21
137.2570641003813
 31
0.0
  0
LINE
  5
395
330
22
100
AcDbEntity
  8
画層1
100
AcDbLine
 10
158.3326879250631
 20
137.2570641003813
 30
0.0
 11
158.3326879250631
 21
136.4570641003812
 31
0.0
  0
LINE
  5
396
330
22
100
AcDbEntity
  8
画層1
100
AcDbLine
 10
162.5326879250632
 20
137.2570641003813
 30
0.0
 11
162.5326879250632
 21
136.4570641003812
 31
0.0
  0
LINE
  5
397
330
22
100
AcDbEntity
  8
0
 62
     7
100
AcDbLine
 10
156.9326879250632
 20
136.4570641003812
 30
0.0
 11
163.9326879250631
 21
136.4570641003813
 31
0.0
  0
LINE
  5
398
330
22
100
AcDbEntity
  8
画層1
100
AcDbLine
 10
162.5326879250632
 20
134.957064100381
 30
0.0
 11
158.3326879250631
 21
134.957064100381
 31
0.0
  0
LINE
  5
399
330
22
100
AcDbEntity
  8
画層1
100
AcDbLine
 10
158.3326879250631
 20
136.4570641003812
 30
0.0
 11
158.3326879250631
 21
134.957064100381
 31
0.0
  0
LINE
  5
39A
330
22
100
AcDbEntity
  8
画層1
100
AcDbLine
 10
162.5326879250632
 20
136.4570641003812
 30
0.0
 11
162.5326879250632
 21
134.957064100381
 31
0.0
  0
LINE
  5
39B
330
22
100
AcDbEntity
  8
画層1
100
AcDbLine
 10
165.6326879250632
 20
137.2570641003813
 30
0.0
 11
165.6326879250632
 21
136.4570641003812
 31
0.0
  0
LINE
  5
39C
330
22
100
AcDbEntity
  8
画層1
100
AcDbLine
 10
172.6326879250632
 20
137.2570641003813
 30
0.0
 11
172.6326879250632
 21
136.4570641003813
 31
0.0
  0
LINE
  5
39D
330
22
100
AcDbEntity
  8
0
 62
     7
100
AcDbLine
 10
165.6326879250632
 20
137.2570641003813
 30
0.0
 11
172.6326879250632
 21
137.2570641003813
 31
0.0
  0
LINE
  5
39E
330
22
100
AcDbEntity
  8
画層1
100
AcDbLine
 10
167.0326879250631
 20
137.2570641003813
 30
0.0
 11
167.0326879250631
 21
136.4570641003812
 31
0.0
  0
LINE
  5
39F
330
22
100
AcDbEntity
  8
画層1
100
AcDbLine
 10
171.2326879250632
 20
137.2570641003813
 30
0.0
 11
171.2326879250632
 21
136.4570641003812
 31
0.0
  0
LINE
  5
3A0
330
22
100
AcDbEntity
  8
0
 62
     7
100
AcDbLine
 10
165.6326879250632
 20
136.4570641003812
 30
0.0
 11
172.6326879250632
 21
136.4570641003813
 31
0.0
  0
LINE
  5
3A1
330
22
100
AcDbEntity
  8
画層1
100
AcDbLine
 10
171.2326879250632
 20
134.957064100381
 30
0.0
 11
167.0326879250631
 21
134.957064100381
 31
0.0
  0
LINE
  5
3A2
330
22
100
AcDbEntity
  8
画層1
100
AcDbLine
 10
167.0326879250631
 20
136.4570641003812
 30
0.0
 11
167.0326879250631
 21
134.957064100381
 31
0.0
  0
LINE
  5
3A3
330
22
100
AcDbEntity
  8
画層1
100
AcDbLine
 10
171.2326879250632
 20
136.4570641003812
 30
0.0
 11
171.2326879250632
 21
134.957064100381
 31
0.0
  0
LINE
  5
3A4
330
22
100
AcDbEntity
  8
画層1
100
AcDbLine
 10
174.3326879250633
 20
137.2570641003813
 30
0.0
 11
174.3326879250633
 21
136.4570641003812
 31
0.0
  0
LINE
  5
3A5
330
22
100
AcDbEntity
  8
画層1
100
AcDbLine
 10
181.3326879250633
 20
137.2570641003813
 30
0.0
 11
181.3326879250633
 21
136.4570641003813
 31
0.0
  0
LINE
  5
3A6
330
22
100
AcDbEntity
  8
0
 62
     7
100
AcDbLine
 10
174.3326879250633
 20
137.2570641003813
 30
0.0
 11
181.3326879250633
 21
137.2570641003813
 31
0.0
  0
LINE
  5
3A7
330
22
100
AcDbEntity
  8
画層1
100
AcDbLine
 10
175.7326879250632
 20
137.2570641003813
 30
0.0
 11
175.7326879250632
 21
136.4570641003812
 31
0.0
  0
LINE
  5
3A8
330
22
100
AcDbEntity
  8
画層1
100
AcDbLine
 10
179.9326879250633
 20
137.2570641003813
 30
0.0
 11
179.9326879250633
 21
136.4570641003812
 31
0.0
  0
LINE
  5
3A9
330
22
100
AcDbEntity
  8
0
 62
     7
100
AcDbLine
 10
174.3326879250633
 20
136.4570641003812
 30
0.0
 11
181.3326879250633
 21
136.4570641003813
 31
0.0
  0
LINE
  5
3AA
330
22
100
AcDbEntity
  8
画層1
100
AcDbLine
 10
179.9326879250633
 20
134.957064100381
 30
0.0
 11
175.7326879250632
 21
134.957064100381
 31
0.0
  0
LINE
  5
3AB
330
22
100
AcDbEntity
  8
画層1
100
AcDbLine
 10
175.7326879250632
 20
136.4570641003812
 30
0.0
 11
175.7326879250632
 21
134.957064100381
 31
0.0
  0
LINE
  5
3AC
330
22
100
AcDbEntity
  8
画層1
100
AcDbLine
 10
179.9326879250633
 20
136.4570641003812
 30
0.0
 11
179.9326879250633
 21
134.957064100381
 31
0.0
  0
DIMENSION
  5
3AD
330
22
100
AcDbEntity
  8
画層1
100
AcDbDimension
  2
*D11
 10
230.2274195918033
 20
165.1654602086214
 30
0.0
 11
226.7274195918032
 21
166.8321268752881
 31
0.0
 70
    32
 71
     5
 42
7.000000000000113
  3
MYCADR13
100
AcDbAlignedDimension
 13
223.2274195918032
 23
176.9281310907363
 33
0.0
 14
230.2274195918033
 24
176.9281310907364
 34
0.0
100
AcDbRotatedDimension
1001
ACAD
1000
DSTYLE
1002
{
1070
    40
1040
0.8333333333333333
1070
    47
1040
1.0
1070
    48
1040
1.0
1070
   146
1040
1.0
1070
   147
1040
0.5
1070
   284
1070
     8
1070
   340
1005
286
1070
   341
1005
0
1002
}
  0
DIMENSION
  5
3AE
330
22
100
AcDbEntity
  8
画層1
100
AcDbDimension
  2
*D12
 10
219.3530085521941
 20
182.2281310907361
 30
0.0
 11
217.6863418855274
 21
179.2281310907363
 31
0.0
 70
    32
 71
     5
 42
5.999999999999744
  3
MYCADR13
100
AcDbAlignedDimension
 13
223.9274195918031
 23
176.2281310907364
 33
0.0
 14
226.7274195918034
 24
182.2281310907361
 34
0.0
 50
90.0
100
AcDbRotatedDimension
1001
ACAD
1000
DSTYLE
1002
{
1070
    40
1040
0.8333333333333333
1070
    47
1040
1.0
1070
    48
1040
1.0
1070
   146
1040
1.0
1070
   147
1040
0.5
1070
   284
1070
     8
1070
   340
1005
286
1070
   341
1005
0
1002
}
  0
DIMENSION
  5
3AF
330
22
100
AcDbEntity
  8
画層1
100
AcDbDimension
  2
*D13
 10
228.8274195918033
 20
172.1984790070382
 30
0.0
 11
220.2148900274501
 21
172.1984790070382
 31
0.0
 70
   160
 71
     5
 42
4.200000000000045
  3
MYCADR13
100
AcDbAlignedDimension
 13
224.6274195918033
 23
176.9281310907364
 33
0.0
 14
228.8274195918033
 24
176.9281310907365
 34
0.0
100
AcDbRotatedDimension
1001
ACAD
1000
DSTYLE
1002
{
1070
    74
1070
     0
1070
    40
1040
0.8333333333333333
1070
    47
1040
1.0
1070
    48
1040
1.0
1070
   146
1040
1.0
1070
   147
1040
0.5
1070
   284
1070
     8
1070
   340
1005
286
1070
   341
1005
0
1002
}
  0
DIMENSION
  5
3B0
330
22
100
AcDbEntity
  8
画層1
370
    -3
100
AcDbDimension
  2
*D14
 10
177.8326879250634
 20
168.8097166384658
 30
0.0
 11
173.4826879250633
 21
170.4763833051325
 31
0.0
 70
    32
 71
     5
 42
8.700000000000102
  3
MYCADR13
100
AcDbAlignedDimension
 13
169.1326879250633
 23
181.0854348727498
 33
0.0
 14
177.8326879250634
 24
181.0854348727498
 34
0.0
100
AcDbRotatedDimension
1001
ACAD
1000
DSTYLE
1002
{
1070
    40
1040
0.8333333333333333
1070
    47
1040
1.0
1070
    48
1040
1.0
1070
   146
1040
1.0
1070
   147
1040
0.5
1070
   284
1070
     8
1070
   340
1005
286
1070
   341
1005
0
1002
}
  0
DIMENSION
  5
3B1
330
22
100
AcDbEntity
  8
画層1
370
    -3
100
AcDbDimension
  2
*D15
 10
169.1326879250633
 20
168.8097166384658
 30
0.0
 11
164.7826879250632
 21
170.4763833051325
 31
0.0
 70
    32
 71
     5
 42
8.700000000000017
  3
MYCADR13
100
AcDbAlignedDimension
 13
160.4326879250633
 23
181.0854348727496
 33
0.0
 14
169.1326879250633
 24
181.0854348727495
 34
0.0
100
AcDbRotatedDimension
1001
ACAD
1000
DSTYLE
1002
{
1070
    40
1040
0.8333333333333333
1070
    47
1040
1.0
1070
    48
1040
1.0
1070
   146
1040
1.0
1070
   147
1040
0.5
1070
   284
1070
     8
1070
   340
1005
286
1070
   341
1005
0
1002
}
  0
DIMENSION
  5
3B2
330
22
100
AcDbEntity
  8
画層1
370
    -3
100
AcDbDimension
  2
*D16
 10
182.6326879250632
 20
86.5831716419899
 30
0.0
 11
169.1326879250631
 21
88.24983830865658
 31
0.0
 70
    32
 71
     5
 42
27.0
  3
MYCADR13
100
AcDbAlignedDimension
 13
155.6326879250631
 23
102.2570641003813
 33
0.0
 14
182.6326879250632
 24
102.2570641003813
 34
0.0
100
AcDbRotatedDimension
1001
ACAD
1000
DSTYLE
1002
{
1070
    40
1040
0.8333333333333333
1070
    47
1040
1.0
1070
    48
1040
1.0
1070
   146
1040
1.0
1070
   147
1040
0.5
1070
   284
1070
     8
1070
   340
1005
286
1070
   341
1005
0
1002
}
  0
DIMENSION
  5
3B3
330
22
100
AcDbEntity
  8
画層1
370
    -3
100
AcDbDimension
  2
*D17
 10
191.9712122483873
 20
101.7570641003813
 30
0.0
 11
190.3045455817206
 21
119.2570354071002
 31
0.0
 70
    32
 71
     5
 42
34.99994261343774
  3
MYCADR13
100
AcDbAlignedDimension
 13
182.140263099588
 23
136.757006713819
 33
0.0
 14
182.140263099588
 24
101.7570641003813
 34
0.0
 50
90.0
100
AcDbRotatedDimension
1001
ACAD
1000
DSTYLE
1002
{
1070
    40
1040
0.8333333333333333
1070
    47
1040
1.0
1070
    48
1040
1.0
1070
   146
1040
1.0
1070
   147
1040
0.5
1070
   284
1070
     8
1070
   340
1005
286
1070
   341
1005
0
1002
}
  0
DIMENSION
  5
3B4
330
22
100
AcDbEntity
  8
画層1
370
    -3
100
AcDbDimension
  2
*D18
 10
236.2015306396752
 20
187.2281310907363
 30
0.0
 11
234.5348639730085
 21
181.7281310907364
 31
0.0
 70
    32
 71
     5
 42
10.99999999999991
  3
MYCADR13
100
AcDbAlignedDimension
 13
229.5274195918032
 23
176.2281310907364
 33
0.0
 14
229.5274195918032
 24
187.2281310907363
 34
0.0
 50
90.0
100
AcDbRotatedDimension
1001
ACAD
1000
DSTYLE
1002
{
1070
    40
1040
0.8333333333333333
1070
    47
1040
1.0
1070
    48
1040
1.0
1070
   146
1040
1.0
1070
   147
1040
0.5
1070
   284
1070
     8
1070
   340
1005
286
1070
   341
1005
0
1002
}
  0
DIMENSION
  5
3B5
330
22
100
AcDbEntity
  8
画層1
370
    -3
100
AcDbDimension
  2
*D19
 10
194.4502671988575
 20
187.9066888170114
 30
0.0
 11
192.7836005321908
 21
182.4066888170115
 31
0.0
 70
    32
 71
     5
 42
10.99999999999988
  3
MYCADR13
100
AcDbAlignedDimension
 13
180.6326879250633
 23
176.9066888170115
 33
0.0
 14
182.6326879250632
 24
187.9066888170114
 34
0.0
 50
90.0
100
AcDbRotatedDimension
1001
ACAD
1000
DSTYLE
1002
{
1070
    40
1040
0.8333333333333333
1070
    47
1040
1.0
1070
    48
1040
1.0
1070
   146
1040
1.0
1070
   147
1040
0.5
1070
   284
1070
     8
1070
   340
1005
286
1070
   341
1005
0
1002
}
  0
ENDSEC
  0
SECTION
  2
OBJECTS
  0
DICTIONARY
  5
C
330
0
100
AcDbDictionary
281
     1
  3
ACAD_COLOR
350
1B
  3
ACAD_GROUP
350
D
  3
ACAD_LAYOUT
350
19
  3
ACAD_MATERIAL
350
1A
  3
ACAD_MLINESTYLE
350
16
  3
ACAD_PLOTSETTINGS
350
18
  3
ACAD_PLOTSTYLENAME
350
E
  3
ACAD_TABLESTYLE
350
1C
  3
ACDBHEADERROUNDTRIPXREC
350
4A5
  3
AcDbVariableDictionary
350
4A0
  0
DICTIONARY
  5
1B
102
{ACAD_REACTORS
330
C
102
}
330
C
100
AcDbDictionary
281
     1
  0
DICTIONARY
  5
D
102
{ACAD_REACTORS
330
C
102
}
330
C
100
AcDbDictionary
281
     1
  0
DICTIONARY
  5
19
102
{ACAD_REACTORS
330
C
102
}
330
C
100
AcDbDictionary
281
     1
  3
Model
350
25
  3
レイアウト1
350
21
  0
DICTIONARY
  5
1A
102
{ACAD_REACTORS
330
C
102
}
330
C
100
AcDbDictionary
281
     1
  0
DICTIONARY
  5
16
102
{ACAD_REACTORS
330
C
102
}
330
C
100
AcDbDictionary
281
     1
  3
Standard
350
17
  0
DICTIONARY
  5
18
102
{ACAD_REACTORS
330
C
102
}
330
C
100
AcDbDictionary
281
     1
  0
ACDBDICTIONARYWDFLT
  5
E
102
{ACAD_REACTORS
330
C
102
}
330
C
100
AcDbDictionary
281
     1
  3
Normal
350
F
100
AcDbDictionaryWithDefault
340
F
  0
DICTIONARY
  5
1C
102
{ACAD_REACTORS
330
C
102
}
330
C
100
AcDbDictionary
281
     1
  3
Standard
350
1D
  0
DICTIONARY
  5
4A5
102
{ACAD_REACTORS
330
C
102
}
330
C
100
AcDbDictionary
281
     1
  0
DICTIONARY
  5
4A0
102
{ACAD_REACTORS
330
C
102
}
330
C
100
AcDbDictionary
281
     1
  3
CTABLESTYLE
350
4A1
  3
DIMASSOC
350
4A2
  3
PROJECTNAME
350
4A3
  0
LAYOUT
  5
25
102
{ACAD_XDICTIONARY
360
4A8
102
}
102
{ACAD_REACTORS
330
19
102
}
330
19
100
AcDbPlotSettings
  1

  2
Microsoft XPS Document Writer
  4

  6

 40
0.0
 41
0.0
 42
0.0
 43
0.0
 44
0.0
 45
0.0
 46
0.0
 47
0.0
 48
0.0
 49
0.0
140
0.0
141
0.0
142
1.0
143
1.0
 70
  1712
 72
     0
 73
     0
 74
     0
  7

 75
     0
147
1.0
148
0.0
149
0.0
100
AcDbLayout
  1
Model
 70
     1
 71
     0
 10
0.0
 20
0.0
 11
12.0
 21
9.0
 12
0.0
 22
0.0
 32
0.0
 14
0.0
 24
0.0
 34
0.0
 15
0.0
 25
0.0
 35
0.0
146
0.0
 13
0.0
 23
0.0
 33
0.0
 16
1.0
 26
0.0
 36
0.0
 17
0.0
 27
1.0
 37
0.0
 76
     0
330
22
  0
LAYOUT
  5
21
102
{ACAD_XDICTIONARY
360
4A6
102
}
102
{ACAD_REACTORS
330
19
102
}
330
19
100
AcDbPlotSettings
  1

  2
Microsoft XPS Document Writer
  4

  6

 40
0.0
 41
0.0
 42
0.0
 43
0.0
 44
0.0
 45
0.0
 46
0.0
 47
0.0
 48
0.0
 49
0.0
140
0.0
141
0.0
142
1.0
143
1.0
 70
   688
 72
     0
 73
     0
 74
     5
  7

 75
    16
147
1.0
148
0.0
149
0.0
100
AcDbLayout
  1
レイアウト1
 70
     1
 71
     1
 10
0.0
 20
0.0
 11
12.0
 21
9.0
 12
0.0
 22
0.0
 32
0.0
 14
1.000000000000000E+20
 24
1.000000000000000E+20
 34
1.000000000000000E+20
 15
-1.000000000000000E+20
 25
-1.000000000000000E+20
 35
-1.000000000000000E+20
146
0.0
 13
0.0
 23
0.0
 33
0.0
 16
1.0
 26
0.0
 36
0.0
 17
0.0
 27
1.0
 37
0.0
 76
     0
330
1E
  0
MLINESTYLE
  5
17
102
{ACAD_REACTORS
330
16
102
}
330
16
100
AcDbMlineStyle
  2
STANDARD
 70
     0
  3

 62
   256
 51
90.0
 52
90.0
 71
     2
 49
0.5
 62
   256
  6
BYLAYER
 49
-0.5
 62
   256
  6
BYLAYER
  0
ACDBPLACEHOLDER
  5
F
102
{ACAD_REACTORS
330
E
102
}
330
E
  0
TABLESTYLE
  5
1D
102
{ACAD_REACTORS
330
1C
102
}
330
1C
100
AcDbTableStyle
  3
Standard
 70
     0
 71
     0
 40
0.06
 41
0.06
280
     0
281
     0
  7
STANDARD
140
0.18
170
     2
 62
     0
 63
     7
283
     0
274
    -2
284
     1
 64
     0
275
    -2
285
     1
 65
     0
276
    -2
286
     1
 66
     0
277
    -2
287
     1
 67
     0
278
    -2
288
     1
 68
     0
279
    -2
289
     1
 69
     0
  7
STANDARD
140
0.25
170
     5
 62
     0
 63
     7
283
     0
274
    -2
284
     1
 64
     0
275
    -2
285
     1
 65
     0
276
    -2
286
     1
 66
     0
277
    -2
287
     1
 67
     0
278
    -2
288
     1
 68
     0
279
    -2
289
     1
 69
     0
  7
STANDARD
140
0.18
170
     5
 62
     0
 63
     7
283
     0
274
    -2
284
     1
 64
     0
275
    -2
285
     1
 65
     0
276
    -2
286
     1
 66
     0
277
    -2
287
     1
 67
     0
278
    -2
288
     1
 68
     0
279
    -2
289
     1
 69
     0
  0
DICTIONARYVAR
  5
4A1
102
{ACAD_REACTORS
330
4A0
102
}
330
4A0
100
DictionaryVariables
280
     0
  1
STANDARD
  0
DICTIONARYVAR
  5
4A2
102
{ACAD_REACTORS
330
4A0
102
}
330
4A0
100
DictionaryVariables
280
     0
  1
1
  0
DICTIONARYVAR
  5
4A3
102
{ACAD_REACTORS
330
4A0
102
}
330
4A0
100
DictionaryVariables
280
     0
  1

  0
DICTIONARY
  5
4A8
330
25
100
AcDbDictionary
280
     1
281
     1
  3
ACAD_XREC_ROUNDTRIP
360
4A9
  0
DICTIONARY
  5
4A6
330
21
100
AcDbDictionary
280
     1
281
     1
  3
ACAD_XREC_ROUNDTRIP
360
4A7
  0
XRECORD
  5
4A9
102
{ACAD_REACTORS
330
4A8
102
}
330
4A8
100
AcDbXrecord
280
     1
102
SHADEPLOT
 70
     0
102
SHADEPLOTRESLEVEL
 70
     2
102
SHADEPLOTCUSTOMDPI
 70
   300
  0
XRECORD
  5
4A7
102
{ACAD_REACTORS
330
4A6
102
}
330
4A6
100
AcDbXrecord
280
     1
102
SHADEPLOT
 70
     0
102
SHADEPLOTRESLEVEL
 70
     2
102
SHADEPLOTCUSTOMDPI
 70
   300
  0
ENDSEC
  0
EOF
