  0
SECTION
  2
HEADER
  9
$ACADVER
  1
AC1015
  9
$ACADMAINTVER
 70
    20
  9
$DWGCODEPAGE
  3
ANSI_932
  9
$INSBASE
 10
0.0
 20
0.0
 30
0.0
  9
$EXTMIN
 10
109.5910479758758
 20
10.0820392438058
 30
0.0
  9
$EXTMAX
 10
289.7482074636524
 20
280.3556131669723
 30
0.0
  9
$LIMMIN
 10
0.0
 20
0.0
  9
$LIMMAX
 10
420.0
 20
297.0
  9
$ORTHOMODE
 70
     0
  9
$REGENMODE
 70
     1
  9
$FILLMODE
 70
     1
  9
$QTEXTMODE
 70
     0
  9
$MIRRTEXT
 70
     0
  9
$LTSCALE
 40
1.0
  9
$ATTMODE
 70
     1
  9
$TEXTSIZE
 40
0.2
  9
$TRACEWID
 40
0.05
  9
$TEXTSTYLE
  7
STANDARD
  9
$CLAYER
  8
0
  9
$CELTYPE
  6
CONTINUOUS
  9
$CECOLOR
 62
   256
  9
$CELTSCALE
 40
1.0
  9
$DISPSILH
 70
     0
  9
$DIMSCALE
 40
1.0
  9
$DIMASZ
 40
0.18
  9
$DIMEXO
 40
0.0625
  9
$DIMDLI
 40
0.38
  9
$DIMRND
 40
0.0
  9
$DIMDLE
 40
0.0
  9
$DIMEXE
 40
0.18
  9
$DIMTP
 40
0.0
  9
$DIMTM
 40
0.0
  9
$DIMTXT
 40
0.18
  9
$DIMCEN
 40
0.09
  9
$DIMTSZ
 40
0.0
  9
$DIMTOL
 70
     0
  9
$DIMLIM
 70
     0
  9
$DIMTIH
 70
     1
  9
$DIMTOH
 70
     1
  9
$DIMSE1
 70
     0
  9
$DIMSE2
 70
     0
  9
$DIMTAD
 70
     0
  9
$DIMZIN
 70
     0
  9
$DIMBLK
  1

  9
$DIMASO
 70
     1
  9
$DIMSHO
 70
     1
  9
$DIMPOST
  1

  9
$DIMAPOST
  1

  9
$DIMALT
 70
     0
  9
$DIMALTD
 70
     2
  9
$DIMALTF
 40
25.4
  9
$DIMLFAC
 40
1.0
  9
$DIMTOFL
 70
     0
  9
$DIMTVP
 40
0.0
  9
$DIMTIX
 70
     0
  9
$DIMSOXD
 70
     0
  9
$DIMSAH
 70
     0
  9
$DIMBLK1
  1

  9
$DIMBLK2
  1

  9
$DIMSTYLE
  2
Standard
  9
$DIMCLRD
 70
     0
  9
$DIMCLRE
 70
     0
  9
$DIMCLRT
 70
     0
  9
$DIMTFAC
 40
1.0
  9
$DIMGAP
 40
0.09
  9
$DIMJUST
 70
     0
  9
$DIMSD1
 70
     0
  9
$DIMSD2
 70
     0
  9
$DIMTOLJ
 70
     1
  9
$DIMTZIN
 70
     0
  9
$DIMALTZ
 70
     0
  9
$DIMALTTZ
 70
     0
  9
$DIMUPT
 70
     0
  9
$DIMDEC
 70
     4
  9
$DIMTDEC
 70
     4
  9
$DIMALTU
 70
     2
  9
$DIMALTTD
 70
     2
  9
$DIMTXSTY
  7
STANDARD
  9
$DIMAUNIT
 70
     0
  9
$DIMADEC
 70
     0
  9
$DIMALTRND
 40
0.0
  9
$DIMAZIN
 70
     0
  9
$DIMDSEP
 70
    46
  9
$DIMATFIT
 70
     3
  9
$DIMFRAC
 70
     0
  9
$DIMLDRBLK
  1

  9
$DIMLUNIT
 70
     2
  9
$DIMLWD
 70
    -2
  9
$DIMLWE
 70
    -2
  9
$DIMTMOVE
 70
     0
  9
$LUNITS
 70
     2
  9
$LUPREC
 70
     4
  9
$SKETCHINC
 40
0.1
  9
$FILLETRAD
 40
0.0
  9
$AUNITS
 70
     0
  9
$AUPREC
 70
     0
  9
$MENU
  1
.
  9
$ELEVATION
 40
0.0
  9
$PELEVATION
 40
0.0
  9
$THICKNESS
 40
0.0
  9
$LIMCHECK
 70
     0
  9
$CHAMFERA
 40
0.0
  9
$CHAMFERB
 40
0.0
  9
$CHAMFERC
 40
0.0
  9
$CHAMFERD
 40
0.0
  9
$SKPOLY
 70
     0
  9
$TDCREATE
 40
2456517.685267824
  9
$TDUCREATE
 40
2456517.310267825
  9
$TDUPDATE
 40
2456517.689720775
  9
$TDUUPDATE
 40
2456517.314720775
  9
$TDINDWG
 40
0.0026835532
  9
$TDUSRTIMER
 40
0.0026833796
  9
$USRTIMER
 70
     1
  9
$ANGBASE
 50
0.0
  9
$ANGDIR
 70
     0
  9
$PDMODE
 70
     0
  9
$PDSIZE
 40
0.0
  9
$PLINEWID
 40
0.0
  9
$SPLFRAME
 70
     0
  9
$SPLINETYPE
 70
     6
  9
$SPLINESEGS
 70
     8
  9
$HANDSEED
  5
6C7
  9
$SURFTAB1
 70
     6
  9
$SURFTAB2
 70
     6
  9
$SURFTYPE
 70
     6
  9
$SURFU
 70
     6
  9
$SURFV
 70
     6
  9
$UCSBASE
  2

  9
$UCSNAME
  2

  9
$UCSORG
 10
0.0
 20
0.0
 30
0.0
  9
$UCSXDIR
 10
1.0
 20
0.0
 30
0.0
  9
$UCSYDIR
 10
0.0
 20
1.0
 30
0.0
  9
$UCSORTHOREF
  2

  9
$UCSORTHOVIEW
 70
     0
  9
$UCSORGTOP
 10
0.0
 20
0.0
 30
0.0
  9
$UCSORGBOTTOM
 10
0.0
 20
0.0
 30
0.0
  9
$UCSORGLEFT
 10
0.0
 20
0.0
 30
0.0
  9
$UCSORGRIGHT
 10
0.0
 20
0.0
 30
0.0
  9
$UCSORGFRONT
 10
0.0
 20
0.0
 30
0.0
  9
$UCSORGBACK
 10
0.0
 20
0.0
 30
0.0
  9
$PUCSBASE
  2

  9
$PUCSNAME
  2

  9
$PUCSORG
 10
0.0
 20
0.0
 30
0.0
  9
$PUCSXDIR
 10
1.0
 20
0.0
 30
0.0
  9
$PUCSYDIR
 10
0.0
 20
1.0
 30
0.0
  9
$PUCSORTHOREF
  2

  9
$PUCSORTHOVIEW
 70
     0
  9
$PUCSORGTOP
 10
0.0
 20
0.0
 30
0.0
  9
$PUCSORGBOTTOM
 10
0.0
 20
0.0
 30
0.0
  9
$PUCSORGLEFT
 10
0.0
 20
0.0
 30
0.0
  9
$PUCSORGRIGHT
 10
0.0
 20
0.0
 30
0.0
  9
$PUCSORGFRONT
 10
0.0
 20
0.0
 30
0.0
  9
$PUCSORGBACK
 10
0.0
 20
0.0
 30
0.0
  9
$USERI1
 70
     0
  9
$USERI2
 70
     0
  9
$USERI3
 70
     0
  9
$USERI4
 70
     0
  9
$USERI5
 70
     0
  9
$USERR1
 40
0.0
  9
$USERR2
 40
0.0
  9
$USERR3
 40
0.0
  9
$USERR4
 40
0.0
  9
$USERR5
 40
0.0
  9
$WORLDVIEW
 70
     1
  9
$SHADEDGE
 70
     3
  9
$SHADEDIF
 70
    70
  9
$TILEMODE
 70
     1
  9
$MAXACTVP
 70
    64
  9
$PINSBASE
 10
0.0
 20
0.0
 30
0.0
  9
$PLIMCHECK
 70
     0
  9
$PEXTMIN
 10
1.000000000000000E+20
 20
1.000000000000000E+20
 30
1.000000000000000E+20
  9
$PEXTMAX
 10
-1.000000000000000E+20
 20
-1.000000000000000E+20
 30
-1.000000000000000E+20
  9
$PLIMMIN
 10
0.0
 20
0.0
  9
$PLIMMAX
 10
12.0
 20
9.0
  9
$UNITMODE
 70
     0
  9
$VISRETAIN
 70
     1
  9
$PLINEGEN
 70
     0
  9
$PSLTSCALE
 70
     1
  9
$TREEDEPTH
 70
  3020
  9
$CMLSTYLE
  2
Standard
  9
$CMLJUST
 70
     0
  9
$CMLSCALE
 40
1.0
  9
$PROXYGRAPHICS
 70
     1
  9
$MEASUREMENT
 70
     0
  9
$CELWEIGHT
370
    -1
  9
$ENDCAPS
280
     0
  9
$JOINSTYLE
280
     0
  9
$LWDISPLAY
290
     0
  9
$INSUNITS
 70
     0
  9
$HYPERLINKBASE
  1

  9
$STYLESHEET
  1

  9
$XEDIT
290
     1
  9
$CEPSNTYPE
380
     0
  9
$PSTYLEMODE
290
     1
  9
$FINGERPRINTGUID
  2
{A9064A1E-A85C-4403-ABF7-EA5E39F3BC50}
  9
$VERSIONGUID
  2
{21AEE80E-CEAA-4C13-A954-33D549C3AAFA}
  9
$EXTNAMES
290
     1
  9
$PSVPSCALE
 40
0.0
  9
$OLESTARTUP
290
     0
  0
ENDSEC
  0
SECTION
  2
CLASSES
  0
CLASS
  1
ACDBDICTIONARYWDFLT
  2
AcDbDictionaryWithDefault
  3
ObjectDBX Classes
 90
        0
280
     0
281
     0
  0
CLASS
  1
TABLESTYLE
  2
AcDbTableStyle
  3
ObjectDBX Classes
 90
     2047
280
     0
281
     0
  0
CLASS
  1
SORTENTSTABLE
  2
AcDbSortentsTable
  3
ObjectDBX Classes
 90
    32768
280
     0
281
     0
  0
CLASS
  1
DICTIONARYVAR
  2
AcDbDictionaryVar
  3
ObjectDBX Classes
 90
        0
280
     0
281
     0
  0
CLASS
  1
ACDBPLACEHOLDER
  2
AcDbPlaceHolder
  3
ObjectDBX Classes
 90
        0
280
     0
281
     0
  0
CLASS
  1
LAYOUT
  2
AcDbLayout
  3
ObjectDBX Classes
 90
        0
280
     0
281
     0
  0
ENDSEC
  0
SECTION
  2
TABLES
  0
TABLE
  2
VPORT
  5
8
330
0
100
AcDbSymbolTable
 70
     2
  0
VPORT
  5
6C1
330
8
100
AcDbSymbolTableRecord
100
AcDbViewportTableRecord
  2
*Active
 70
     0
 10
0.0
 20
0.0
 11
1.0
 21
1.0
 12
275.4353871826783
 22
137.2414499350313
 13
0.0
 23
0.0
 14
1.0
 24
1.0
 15
0.0
 25
0.0
 16
0.0
 26
0.0
 36
1.0
 17
0.0
 27
0.0
 37
0.0
 40
358.229706571123
 41
1.603406326034063
 42
50.0
 43
0.0
 44
0.0
 50
0.0
 51
0.0
 71
     0
 72
   100
 73
     1
 74
     1
 75
     0
 76
     0
 77
     0
 78
     0
281
     0
 65
     1
110
0.0
120
0.0
130
0.0
111
1.0
121
0.0
131
0.0
112
0.0
122
1.0
132
0.0
 79
     0
146
0.0
  0
ENDTAB
  0
TABLE
  2
LTYPE
  5
5
330
0
100
AcDbSymbolTable
 70
    41
  0
LTYPE
  5
13
330
5
100
AcDbSymbolTableRecord
100
AcDbLinetypeTableRecord
  2
ByBlock
 70
     0
  3

 72
    65
 73
     0
 40
0.0
  0
LTYPE
  5
14
330
5
100
AcDbSymbolTableRecord
100
AcDbLinetypeTableRecord
  2
ByLayer
 70
     0
  3

 72
    65
 73
     0
 40
0.0
  0
LTYPE
  5
15
330
5
100
AcDbSymbolTableRecord
100
AcDbLinetypeTableRecord
  2
CONTINUOUS
 70
     0
  3
実線
 72
    65
 73
     0
 40
0.0
  0
LTYPE
  5
26
330
5
100
AcDbSymbolTableRecord
100
AcDbLinetypeTableRecord
  2
DASHED1
 70
     0
  3
--  --  --  --  --  --  --  --  
 72
    65
 73
     2
 40
2.5
 49
1.25
 74
     0
 49
-1.25
 74
     0
  0
LTYPE
  5
27
330
5
100
AcDbSymbolTableRecord
100
AcDbLinetypeTableRecord
  2
DASHED2
 70
     0
  3
----    ----    ----    ----    
 72
    65
 73
     2
 40
5.0
 49
2.5
 74
     0
 49
-2.5
 74
     0
  0
LTYPE
  5
28
330
5
100
AcDbSymbolTableRecord
100
AcDbLinetypeTableRecord
  2
DASHED3
 70
     0
  3
------  ------  ------  ------  
 72
    65
 73
     2
 40
5.0
 49
3.75
 74
     0
 49
-1.25
 74
     0
  0
LTYPE
  5
29
330
5
100
AcDbSymbolTableRecord
100
AcDbLinetypeTableRecord
  2
CENTER1
 70
     0
  3
----- - ----- - ----- - ----- - 
 72
    65
 73
     4
 40
10.0
 49
6.25
 74
     0
 49
-1.25
 74
     0
 49
1.25
 74
     0
 49
-1.25
 74
     0
  0
LTYPE
  5
2A
330
5
100
AcDbSymbolTableRecord
100
AcDbLinetypeTableRecord
  2
CENTER2
 70
     0
  3
----------  --  ----------  --  
 72
    65
 73
     4
 40
20.0
 49
12.5
 74
     0
 49
-2.5
 74
     0
 49
2.5
 74
     0
 49
-2.5
 74
     0
  0
LTYPE
  5
2B
330
5
100
AcDbSymbolTableRecord
100
AcDbLinetypeTableRecord
  2
PHANTOM1
 70
     0
  3
--- - - --- - - --- - - --- - - 
 72
    65
 73
     6
 40
10.0
 49
3.25
 74
     0
 49
-1.25
 74
     0
 49
1.25
 74
     0
 49
-1.25
 74
     0
 49
1.25
 74
     0
 49
-1.25
 74
     0
  0
LTYPE
  5
2C
330
5
100
AcDbSymbolTableRecord
100
AcDbLinetypeTableRecord
  2
PHANTOM2
 70
     0
  3
--------  -  -  --------  -  -  
 72
    65
 73
     6
 40
20.0
 49
10.0
 74
     0
 49
-2.5
 74
     0
 49
1.25
 74
     0
 49
-2.5
 74
     0
 49
1.25
 74
     0
 49
-2.5
 74
     0
  0
LTYPE
  5
2D
330
5
100
AcDbSymbolTableRecord
100
AcDbLinetypeTableRecord
  2
DOT
 70
     0
  3
                                
 72
    65
 73
     0
 40
0.0
  0
LTYPE
  5
2E
330
5
100
AcDbSymbolTableRecord
100
AcDbLinetypeTableRecord
  2
DUMMY
 70
     0
  3
ダミー
 72
    65
 73
     0
 40
0.0
  0
LTYPE
  5
2F
330
5
100
AcDbSymbolTableRecord
100
AcDbLinetypeTableRecord
  2
RAND1
 70
     0
  3
ランダム線1
 72
    65
 73
     4
 40
10.0
 49
1.0
 74
     0
 49
-2.0
 74
     0
 49
3.0
 74
     0
 49
-4.0
 74
     0
  0
LTYPE
  5
30
330
5
100
AcDbSymbolTableRecord
100
AcDbLinetypeTableRecord
  2
RAND2
 70
     0
  3
ランダム線2
 72
    65
 73
     4
 40
14.0
 49
2.0
 74
     0
 49
-3.0
 74
     0
 49
4.0
 74
     0
 49
-5.0
 74
     0
  0
LTYPE
  5
31
330
5
100
AcDbSymbolTableRecord
100
AcDbLinetypeTableRecord
  2
RAND3
 70
     0
  3
ランダム線3
 72
    65
 73
     4
 40
18.0
 49
3.0
 74
     0
 49
-4.0
 74
     0
 49
5.0
 74
     0
 49
-6.0
 74
     0
  0
LTYPE
  5
32
330
5
100
AcDbSymbolTableRecord
100
AcDbLinetypeTableRecord
  2
RAND4
 70
     0
  3
ランダム線4
 72
    65
 73
     4
 40
22.0
 49
4.0
 74
     0
 49
-5.0
 74
     0
 49
6.0
 74
     0
 49
-7.0
 74
     0
  0
LTYPE
  5
33
330
5
100
AcDbSymbolTableRecord
100
AcDbLinetypeTableRecord
  2
RAND5
 70
     0
  3
ランダム線5
 72
    65
 73
     4
 40
26.0
 49
5.0
 74
     0
 49
-6.0
 74
     0
 49
7.0
 74
     0
 49
-8.0
 74
     0
  0
LTYPE
  5
34
330
5
100
AcDbSymbolTableRecord
100
AcDbLinetypeTableRecord
  2
LONG1
 70
     0
  3
----------  --  ----------  --  
 72
    65
 73
     4
 40
40.0
 49
32.5
 74
     0
 49
-2.5
 74
     0
 49
2.5
 74
     0
 49
-2.5
 74
     0
  0
LTYPE
  5
35
330
5
100
AcDbSymbolTableRecord
100
AcDbLinetypeTableRecord
  2
LONG2
 70
     0
  3
--------  -  -  --------  -  -  
 72
    65
 73
     6
 40
40.0
 49
30.0
 74
     0
 49
-2.5
 74
     0
 49
1.25
 74
     0
 49
-2.5
 74
     0
 49
1.25
 74
     0
 49
-2.5
 74
     0
  0
LTYPE
  5
36
330
5
100
AcDbSymbolTableRecord
100
AcDbLinetypeTableRecord
  2
LONG3
 70
     0
  3
+++++++++++++++..+++++++++++++++
 72
    65
 73
     2
 40
40.0
 49
37.5
 74
     0
 49
-2.5
 74
     0
  0
LTYPE
  5
37
330
5
100
AcDbSymbolTableRecord
100
AcDbLinetypeTableRecord
  2
LONG4
 70
     0
  3
+++++++++++++++..+++++++++++++++
 72
    65
 73
     2
 40
80.0
 49
75.0
 74
     0
 49
-5.0
 74
     0
  0
LTYPE
  5
38
330
5
100
AcDbSymbolTableRecord
100
AcDbLinetypeTableRecord
  2
LONG5
 70
     0
  3
----------  --  ----------  --  
 72
    65
 73
     4
 40
60.0
 49
37.5
 74
     0
 49
-7.5
 74
     0
 49
7.5
 74
     0
 49
-7.5
 74
     0
  0
LTYPE
  5
39
330
5
100
AcDbSymbolTableRecord
100
AcDbLinetypeTableRecord
  2
DASHED
 70
     0
  3
                                
 72
    65
 73
     0
 40
0.0
  0
LTYPE
  5
3A
330
5
100
AcDbSymbolTableRecord
100
AcDbLinetypeTableRecord
  2
DASHED_SPACED
 70
     0
  3
----        --------        ----
 72
    65
 73
     2
 40
12.0
 49
6.0
 74
     0
 49
-6.0
 74
     0
  0
LTYPE
  5
3B
330
5
100
AcDbSymbolTableRecord
100
AcDbLinetypeTableRecord
  2
LONG_DASHED_DOTTED
 70
     0
  3
------------- --- --------------
 72
    65
 73
     4
 40
15.25
 49
12.0
 74
     0
 49
-1.5
 74
     0
 49
0.25
 74
     0
 49
-1.5
 74
     0
  0
LTYPE
  5
3C
330
5
100
AcDbSymbolTableRecord
100
AcDbLinetypeTableRecord
  2
LONG_DASHED_DOUBLE-DOTTED
 70
     0
  3
----------- --- --- ------------
 72
    65
 73
     6
 40
17.0
 49
12.0
 74
     0
 49
-1.5
 74
     0
 49
0.25
 74
     0
 49
-1.5
 74
     0
 49
0.25
 74
     0
 49
-1.5
 74
     0
  0
LTYPE
  5
3D
330
5
100
AcDbSymbolTableRecord
100
AcDbLinetypeTableRecord
  2
LONG_DASHED_TRIPLICATE-DOTTED
 70
     0
  3
--------- --- --- --- ----------
 72
    65
 73
     8
 40
18.75
 49
12.0
 74
     0
 49
-1.5
 74
     0
 49
0.25
 74
     0
 49
-1.5
 74
     0
 49
0.25
 74
     0
 49
-1.5
 74
     0
 49
0.25
 74
     0
 49
-1.5
 74
     0
  0
LTYPE
  5
3E
330
5
100
AcDbSymbolTableRecord
100
AcDbLinetypeTableRecord
  2
DOTTED
 70
     0
  3
   -       -       -       -    
 72
    65
 73
     2
 40
1.75
 49
0.25
 74
     0
 49
-1.5
 74
     0
  0
LTYPE
  5
3F
330
5
100
AcDbSymbolTableRecord
100
AcDbLinetypeTableRecord
  2
CHAIN
 70
     0
  3
-------------- -- --------------
 72
    65
 73
     4
 40
18.5
 49
12.0
 74
     0
 49
-1.5
 74
     0
 49
3.5
 74
     0
 49
-1.5
 74
     0
  0
LTYPE
  5
40
330
5
100
AcDbSymbolTableRecord
100
AcDbLinetypeTableRecord
  2
CHAIN_DOUBLE_DASH
 70
     0
  3
------------ -- -- -------------
 72
    65
 73
     6
 40
23.5
 49
12.0
 74
     0
 49
-1.5
 74
     0
 49
3.5
 74
     0
 49
-1.5
 74
     0
 49
3.5
 74
     0
 49
-1.5
 74
     0
  0
LTYPE
  5
41
330
5
100
AcDbSymbolTableRecord
100
AcDbLinetypeTableRecord
  2
DASHED_DOTTED
 70
     0
  3
-----------     -     ----------
 72
    65
 73
     4
 40
9.25
 49
6.0
 74
     0
 49
-1.5
 74
     0
 49
0.25
 74
     0
 49
-1.5
 74
     0
  0
LTYPE
  5
42
330
5
100
AcDbSymbolTableRecord
100
AcDbLinetypeTableRecord
  2
DOUBLE-DASHED_DOTTED
 70
     0
  3
------   -----------   -   -----
 72
    65
 73
     6
 40
16.75
 49
6.0
 74
     0
 49
-1.5
 74
     0
 49
6.0
 74
     0
 49
-1.5
 74
     0
 49
0.25
 74
     0
 49
-1.5
 74
     0
  0
LTYPE
  5
43
330
5
100
AcDbSymbolTableRecord
100
AcDbLinetypeTableRecord
  2
DASHED_DOUBLE-DOTTED
 70
     0
  3
---------    -    -    ---------
 72
    65
 73
     6
 40
11.0
 49
6.0
 74
     0
 49
-1.5
 74
     0
 49
0.25
 74
     0
 49
-1.5
 74
     0
 49
0.25
 74
     0
 49
-1.5
 74
     0
  0
LTYPE
  5
44
330
5
100
AcDbSymbolTableRecord
100
AcDbLinetypeTableRecord
  2
DOUBLE-DASHED_DOUBLE-DOTTED
 70
     0
  3
-----   ---------   -   -   ----
 72
    65
 73
     8
 40
18.5
 49
6.0
 74
     0
 49
-1.5
 74
     0
 49
6.0
 74
     0
 49
-1.5
 74
     0
 49
0.25
 74
     0
 49
-1.5
 74
     0
 49
0.25
 74
     0
 49
-1.5
 74
     0
  0
LTYPE
  5
45
330
5
100
AcDbSymbolTableRecord
100
AcDbLinetypeTableRecord
  2
DASHED_TRIPLICATE-DOTTED
 70
     0
  3
-------    -    -    -    ------
 72
    65
 73
     8
 40
12.75
 49
6.0
 74
     0
 49
-1.5
 74
     0
 49
0.25
 74
     0
 49
-1.5
 74
     0
 49
0.25
 74
     0
 49
-1.5
 74
     0
 49
0.25
 74
     0
 49
-1.5
 74
     0
  0
LTYPE
  5
46
330
5
100
AcDbSymbolTableRecord
100
AcDbLinetypeTableRecord
  2
DOUBLE-DASHED_TRIPLICATE-DOTTED
 70
     0
  3
-----  ---------  -  -  -  -----
 72
    65
 73
    10
 40
20.25
 49
6.0
 74
     0
 49
-1.5
 74
     0
 49
6.0
 74
     0
 49
-1.5
 74
     0
 49
0.25
 74
     0
 49
-1.5
 74
     0
 49
0.25
 74
     0
 49
-1.5
 74
     0
 49
0.25
 74
     0
 49
-1.5
 74
     0
  0
LTYPE
  5
47
330
5
100
AcDbSymbolTableRecord
100
AcDbLinetypeTableRecord
  2
UNDEFINED
 70
     0
  3
--------------------------------
 72
    65
 73
     0
 40
0.0
  0
LTYPE
  5
48
330
5
100
AcDbSymbolTableRecord
100
AcDbLinetypeTableRecord
  2
HIDDEN
 70
     0
  3
                                
 72
    65
 73
     0
 40
0.0
  0
LTYPE
  5
49
330
5
100
AcDbSymbolTableRecord
100
AcDbLinetypeTableRecord
  2
CENTER
 70
     0
  3
                                
 72
    65
 73
     0
 40
0.0
  0
LTYPE
  5
4A
330
5
100
AcDbSymbolTableRecord
100
AcDbLinetypeTableRecord
  2
PHANTOM
 70
     0
  3
                                
 72
    65
 73
     0
 40
0.0
  0
LTYPE
  5
4B
330
5
100
AcDbSymbolTableRecord
100
AcDbLinetypeTableRecord
  2
DASHDOT
 70
     0
  3
                                
 72
    65
 73
     0
 40
0.0
  0
LTYPE
  5
4C
330
5
100
AcDbSymbolTableRecord
100
AcDbLinetypeTableRecord
  2
BORDER
 70
     0
  3
                                
 72
    65
 73
     0
 40
0.0
  0
LTYPE
  5
4D
330
5
100
AcDbSymbolTableRecord
100
AcDbLinetypeTableRecord
  2
HOJYO
 70
     0
  3
                                
 72
    65
 73
     0
 40
0.0
  0
ENDTAB
  0
TABLE
  2
LAYER
  5
2
330
0
100
AcDbSymbolTable
 70
    10
  0
LAYER
  5
10
330
2
100
AcDbSymbolTableRecord
100
AcDbLayerTableRecord
  2
0
 70
     0
 62
     7
  6
CONTINUOUS
370
    -3
390
F
  0
LAYER
  5
4F
330
2
100
AcDbSymbolTableRecord
100
AcDbLayerTableRecord
  2
_0-1_
 70
     0
 62
     7
  6
CONTINUOUS
370
    -3
390
F
  0
LAYER
  5
50
330
2
100
AcDbSymbolTableRecord
100
AcDbLayerTableRecord
  2
_1-1_
 70
     0
 62
     7
  6
CONTINUOUS
370
    -3
390
F
  0
LAYER
  5
51
330
2
100
AcDbSymbolTableRecord
100
AcDbLayerTableRecord
  2
_1-2_
 70
     0
 62
     7
  6
CONTINUOUS
370
    -3
390
F
  0
LAYER
  5
52
330
2
100
AcDbSymbolTableRecord
100
AcDbLayerTableRecord
  2
_1-3_ADD_LINE
 70
     0
 62
     7
  6
CONTINUOUS
370
    -3
390
F
  0
LAYER
  5
53
330
2
100
AcDbSymbolTableRecord
100
AcDbLayerTableRecord
  2
_1-4_
 70
     0
 62
     7
  6
CONTINUOUS
370
    -3
390
F
  0
LAYER
  5
54
330
2
100
AcDbSymbolTableRecord
100
AcDbLayerTableRecord
  2
ADD_LINE
 70
     0
 62
     7
  6
CONTINUOUS
370
    -3
390
F
  0
LAYER
  5
4A2
330
2
100
AcDbSymbolTableRecord
100
AcDbLayerTableRecord
  2
DEFPOINTS
 70
     0
 62
     5
  6
CONTINUOUS
290
     0
370
    -3
390
F
  0
LAYER
  5
4A3
330
2
100
AcDbSymbolTableRecord
100
AcDbLayerTableRecord
  2
SUNPOU
 70
     0
 62
     4
  6
CONTINUOUS
370
    -3
390
F
  0
LAYER
  5
4A4
330
2
100
AcDbSymbolTableRecord
100
AcDbLayerTableRecord
  2
画層1
 70
     0
 62
     7
  6
CONTINUOUS
370
    -3
390
F
1001
AcAecLayerStandard
1000

1000

  0
ENDTAB
  0
TABLE
  2
STYLE
  5
3
330
0
100
AcDbSymbolTable
 70
     3
  0
STYLE
  5
11
330
3
100
AcDbSymbolTableRecord
100
AcDbTextStyleTableRecord
  2
STANDARD
 70
     0
 40
0.0
 41
1.0
 50
0.0
 71
     0
 42
0.2
  3
txt
  4
bigfont.shx
  0
STYLE
  5
4E
330
3
100
AcDbSymbolTableRecord
100
AcDbTextStyleTableRecord
  2
TATEGAKI
 70
     4
 40
0.0
 41
1.0
 50
0.0
 71
     0
 42
1.0
  3
txt
  4
bigfont.shx
  0
STYLE
  5
4A5
330
3
100
AcDbSymbolTableRecord
100
AcDbTextStyleTableRecord
  2
KANJI
 70
     0
 40
0.0
 41
1.0
 50
0.0
 71
     0
 42
3.0
  3
romans
  4
extfont
  0
ENDTAB
  0
TABLE
  2
VIEW
  5
6
330
0
100
AcDbSymbolTable
 70
     0
  0
ENDTAB
  0
TABLE
  2
UCS
  5
7
330
0
100
AcDbSymbolTable
 70
     0
  0
ENDTAB
  0
TABLE
  2
APPID
  5
9
330
0
100
AcDbSymbolTable
 70
     3
  0
APPID
  5
12
330
9
100
AcDbSymbolTableRecord
100
AcDbRegAppTableRecord
  2
ACAD
 70
     0
  0
APPID
  5
4A7
330
9
100
AcDbSymbolTableRecord
100
AcDbRegAppTableRecord
  2
AcAecLayerStandard
 70
     0
  0
APPID
  5
4A8
330
9
100
AcDbSymbolTableRecord
100
AcDbRegAppTableRecord
  2
ACAD_PSEXT
 70
     0
  0
ENDTAB
  0
TABLE
  2
DIMSTYLE
  5
A
330
0
100
AcDbSymbolTable
 70
     2
100
AcDbDimStyleTable
 71
     0
  0
DIMSTYLE
105
20E
330
A
100
AcDbSymbolTableRecord
100
AcDbDimStyleTableRecord
  2
Standard
 70
     0
340
11
  0
DIMSTYLE
105
4A6
102
{ACAD_REACTORS
330
5E2
330
5E3
330
5E4
330
5E5
330
5E6
330
5E7
330
5E8
102
}
330
A
100
AcDbSymbolTableRecord
100
AcDbDimStyleTableRecord
  2
MYCADR13
 70
     0
 40
0.0
 41
1.5
 42
1.0
 43
7.0
 44
1.5
 73
     0
 74
     0
 77
     3
 78
     8
140
3.0
141
0.0
145
0.7
146
0.5
172
     1
173
     1
174
     1
271
     1
272
     1
340
11
341
447
343
447
344
447
  0
ENDTAB
  0
TABLE
  2
BLOCK_RECORD
  5
1
330
0
100
AcDbSymbolTable
 70
    15
  0
BLOCK_RECORD
  5
22
330
1
100
AcDbSymbolTableRecord
100
AcDbBlockTableRecord
  2
*Model_Space
340
25
  0
BLOCK_RECORD
  5
1E
330
1
100
AcDbSymbolTableRecord
100
AcDbBlockTableRecord
  2
*Paper_Space
340
21
  0
BLOCK_RECORD
  5
447
330
1
100
AcDbSymbolTableRecord
100
AcDbBlockTableRecord
  2
_OPEN
340
0
102
{BLKREFS
331
452
331
453
331
45E
331
45F
331
46B
331
46C
331
477
331
478
331
483
331
484
331
48F
331
490
331
49B
331
49C
331
56A
331
56B
331
573
331
574
331
57F
331
580
331
65D
331
65E
331
666
331
667
331
66F
331
670
331
68E
331
68F
331
697
331
698
331
6A1
331
6A2
331
6AA
331
6AB
102
}
  0
BLOCK_RECORD
  5
44D
330
1
100
AcDbSymbolTableRecord
100
AcDbBlockTableRecord
  2
*D1
340
0
  0
BLOCK_RECORD
  5
459
330
1
100
AcDbSymbolTableRecord
100
AcDbBlockTableRecord
  2
*D2
340
0
  0
BLOCK_RECORD
  5
465
330
1
100
AcDbSymbolTableRecord
100
AcDbBlockTableRecord
  2
*D3
340
0
  0
BLOCK_RECORD
  5
472
330
1
100
AcDbSymbolTableRecord
100
AcDbBlockTableRecord
  2
*D4
340
0
  0
BLOCK_RECORD
  5
47E
330
1
100
AcDbSymbolTableRecord
100
AcDbBlockTableRecord
  2
*D5
340
0
  0
BLOCK_RECORD
  5
48A
330
1
100
AcDbSymbolTableRecord
100
AcDbBlockTableRecord
  2
*D6
340
0
  0
BLOCK_RECORD
  5
496
330
1
100
AcDbSymbolTableRecord
100
AcDbBlockTableRecord
  2
*D7
340
0
  0
BLOCK_RECORD
  5
5E9
330
1
100
AcDbSymbolTableRecord
100
AcDbBlockTableRecord
  2
*D8
340
0
  0
BLOCK_RECORD
  5
5F5
330
1
100
AcDbSymbolTableRecord
100
AcDbBlockTableRecord
  2
*D9
340
0
  0
BLOCK_RECORD
  5
601
330
1
100
AcDbSymbolTableRecord
100
AcDbBlockTableRecord
  2
*D10
340
0
  0
BLOCK_RECORD
  5
60E
330
1
100
AcDbSymbolTableRecord
100
AcDbBlockTableRecord
  2
*D11
340
0
  0
BLOCK_RECORD
  5
61A
330
1
100
AcDbSymbolTableRecord
100
AcDbBlockTableRecord
  2
*D12
340
0
  0
BLOCK_RECORD
  5
626
330
1
100
AcDbSymbolTableRecord
100
AcDbBlockTableRecord
  2
*D13
340
0
  0
BLOCK_RECORD
  5
632
330
1
100
AcDbSymbolTableRecord
100
AcDbBlockTableRecord
  2
*D14
340
0
  0
ENDTAB
  0
ENDSEC
  0
SECTION
  2
BLOCKS
  0
BLOCK
  5
23
330
22
100
AcDbEntity
  8
0
100
AcDbBlockBegin
  2
*Model_Space
 70
     0
 10
0.0
 20
0.0
 30
0.0
  3
*Model_Space
  1

  0
ENDBLK
  5
24
330
22
100
AcDbEntity
  8
0
100
AcDbBlockEnd
  0
BLOCK
  5
1F
330
1E
100
AcDbEntity
 67
     1
  8
0
100
AcDbBlockBegin
  2
*Paper_Space
 70
     0
 10
0.0
 20
0.0
 30
0.0
  3
*Paper_Space
  1

  0
ENDBLK
  5
20
330
1E
100
AcDbEntity
 67
     1
  8
0
100
AcDbBlockEnd
  0
BLOCK
  5
448
330
447
100
AcDbEntity
  8
0
100
AcDbBlockBegin
  2
_OPEN
 70
     0
 10
0.0
 20
0.0
 30
0.0
  3
_OPEN
  1

  0
LINE
  5
449
330
447
100
AcDbEntity
  8
0
  6
ByBlock
 62
     0
100
AcDbLine
 10
-1.0
 20
0.1666666666666666
 30
0.0
 11
0.0
 21
0.0
 31
0.0
  0
LINE
  5
44A
330
447
100
AcDbEntity
  8
0
  6
ByBlock
 62
     0
100
AcDbLine
 10
0.0
 20
0.0
 30
0.0
 11
-1.0
 21
-0.1666666666666666
 31
0.0
  0
LINE
  5
44B
330
447
100
AcDbEntity
  8
0
  6
ByBlock
 62
     0
100
AcDbLine
 10
0.0
 20
0.0
 30
0.0
 11
-1.0
 21
0.0
 31
0.0
  0
ENDBLK
  5
44C
330
447
100
AcDbEntity
  8
0
100
AcDbBlockEnd
  0
BLOCK
  5
44E
330
44D
100
AcDbEntity
  8
0
100
AcDbBlockBegin
  2
*D1
 70
     1
 10
0.0
 20
0.0
 30
0.0
  3
*D1
  1

  0
LINE
  5
44F
330
44D
100
AcDbEntity
  8
画層1
 62
     0
370
    -2
100
AcDbLine
 10
101.012529564353
 20
205.9563599109202
 30
0.0
 11
101.012529564353
 21
193.7770223621386
 31
0.0
  0
LINE
  5
450
330
44D
100
AcDbEntity
  8
画層1
 62
     0
370
    -2
100
AcDbLine
 10
108.0125295643531
 20
205.9563599109203
 30
0.0
 11
108.0125295643531
 21
193.7770223621386
 31
0.0
  0
LINE
  5
451
330
44D
100
AcDbEntity
  8
画層1
 62
     0
370
    -2
100
AcDbLine
 10
102.262529564353
 20
195.0270223621386
 30
0.0
 11
106.7625295643531
 21
195.0270223621386
 31
0.0
  0
INSERT
  5
452
330
44D
100
AcDbEntity
  8
画層1
 62
     0
370
    -2
100
AcDbBlockReference
  2
_OPEN
 10
101.012529564353
 20
195.0270223621386
 30
0.0
 41
1.25
 42
1.25
 43
1.25
 50
180.0
  0
INSERT
  5
453
330
44D
100
AcDbEntity
  8
画層1
 62
     0
370
    -2
100
AcDbBlockReference
  2
_OPEN
 10
108.0125295643531
 20
195.0270223621386
 30
0.0
 41
1.25
 42
1.25
 43
1.25
  0
MTEXT
  5
454
330
44D
100
AcDbEntity
  8
画層1
 62
     0
100
AcDbMText
 10
104.5125295643531
 20
196.6936890288052
 30
0.0
 40
2.5
 41
0.0
 71
     5
 72
     1
  1
\A1;7
  7
KANJI
 73
     1
 44
1.0
1001
ACAD
1000
MTEXTBEGIN
1070
    73
1070
     1
1070
    44
1040
1.0
1070
    74
1070
     0
1000
MTEXTEND
  0
POINT
  5
455
330
44D
100
AcDbEntity
  8
DEFPOINTS
 62
     0
100
AcDbPoint
 10
101.012529564353
 20
206.7896932442535
 30
0.0
  0
POINT
  5
456
330
44D
100
AcDbEntity
  8
DEFPOINTS
 62
     0
100
AcDbPoint
 10
108.0125295643531
 20
206.7896932442536
 30
0.0
  0
POINT
  5
457
330
44D
100
AcDbEntity
  8
DEFPOINTS
 62
     0
100
AcDbPoint
 10
108.0125295643531
 20
195.0270223621386
 30
0.0
  0
ENDBLK
  5
458
330
44D
100
AcDbEntity
  8
0
100
AcDbBlockEnd
  0
BLOCK
  5
45A
330
459
100
AcDbEntity
  8
0
100
AcDbBlockBegin
  2
*D2
 70
     1
 10
0.0
 20
0.0
 30
0.0
  3
*D2
  1

  0
LINE
  5
45B
330
459
100
AcDbEntity
  8
画層1
 62
     0
370
    -2
100
AcDbLine
 10
100.8791962310196
 20
206.0896932442536
 30
0.0
 11
95.88811852474396
 21
206.0896932442536
 31
0.0
  0
LINE
  5
45C
330
459
100
AcDbEntity
  8
画層1
 62
     0
370
    -2
100
AcDbLine
 10
103.6791962310199
 20
212.0896932442533
 30
0.0
 11
95.88811852474396
 21
212.0896932442533
 31
0.0
  0
LINE
  5
45D
330
459
100
AcDbEntity
  8
画層1
 62
     0
370
    -2
100
AcDbLine
 10
97.13811852474396
 20
207.3396932442536
 30
0.0
 11
97.13811852474396
 21
210.8396932442533
 31
0.0
  0
INSERT
  5
45E
330
459
100
AcDbEntity
  8
画層1
 62
     0
370
    -2
100
AcDbBlockReference
  2
_OPEN
 10
97.13811852474396
 20
206.0896932442536
 30
0.0
 41
1.25
 42
1.25
 43
1.25
 50
270.0
  0
INSERT
  5
45F
330
459
100
AcDbEntity
  8
画層1
 62
     0
370
    -2
100
AcDbBlockReference
  2
_OPEN
 10
97.13811852474396
 20
212.0896932442533
 30
0.0
 41
1.25
 42
1.25
 43
1.25
 50
90.0
  0
MTEXT
  5
460
330
459
100
AcDbEntity
  8
画層1
 62
     0
100
AcDbMText
 10
95.47145185807726
 20
209.0896932442535
 30
0.0
 40
2.5
 41
0.0
 71
     5
 72
     1
  1
\A1;6
  7
KANJI
 11
0.0000000000000001
 21
1.0
 31
0.0
 73
     1
 44
1.0
1001
ACAD
1000
MTEXTBEGIN
1070
    73
1070
     1
1070
    44
1040
1.0
1070
    74
1070
     0
1000
MTEXTEND
  0
POINT
  5
461
330
459
100
AcDbEntity
  8
DEFPOINTS
 62
     0
100
AcDbPoint
 10
101.7125295643529
 20
206.0896932442536
 30
0.0
  0
POINT
  5
462
330
459
100
AcDbEntity
  8
DEFPOINTS
 62
     0
100
AcDbPoint
 10
104.5125295643532
 20
212.0896932442533
 30
0.0
  0
POINT
  5
463
330
459
100
AcDbEntity
  8
DEFPOINTS
 62
     0
100
AcDbPoint
 10
97.13811852474396
 20
212.0896932442533
 30
0.0
  0
ENDBLK
  5
464
330
459
100
AcDbEntity
  8
0
100
AcDbBlockEnd
  0
BLOCK
  5
466
330
465
100
AcDbEntity
  8
0
100
AcDbBlockBegin
  2
*D3
 70
     1
 10
0.0
 20
0.0
 30
0.0
  3
*D3
  1

  0
LINE
  5
467
330
465
100
AcDbEntity
  8
画層1
 62
     0
370
    -2
100
AcDbLine
 10
102.412529564353
 20
205.9563599109202
 30
0.0
 11
102.412529564353
 21
200.8100411605553
 31
0.0
  0
LINE
  5
468
330
465
100
AcDbEntity
  8
画層1
 62
     0
370
    -2
100
AcDbLine
 10
106.612529564353
 20
205.9563599109203
 30
0.0
 11
106.612529564353
 21
200.8100411605553
 31
0.0
  0
LINE
  5
469
330
465
100
AcDbEntity
  8
画層1
 62
     0
370
    -2
100
AcDbLine
 10
105.3625295643531
 20
202.0600411605554
 30
0.0
 11
103.6625295643531
 21
202.0600411605554
 31
0.0
  0
LINE
  5
46A
330
465
100
AcDbEntity
  8
画層1
 62
     0
370
    -2
100
AcDbLine
 10
102.412529564353
 20
202.0600411605554
 30
0.0
 11
94.96428571428571
 21
202.0600411605554
 31
0.0
  0
INSERT
  5
46B
330
465
100
AcDbEntity
  8
画層1
 62
     0
370
    -2
100
AcDbBlockReference
  2
_OPEN
 10
106.612529564353
 20
202.0600411605554
 30
0.0
 41
1.25
 42
1.25
 43
1.25
  0
INSERT
  5
46C
330
465
100
AcDbEntity
  8
画層1
 62
     0
370
    -2
100
AcDbBlockReference
  2
_OPEN
 10
102.412529564353
 20
202.0600411605554
 30
0.0
 41
1.25
 42
1.25
 43
1.25
 50
180.0
  0
MTEXT
  5
46D
330
465
100
AcDbEntity
  8
画層1
 62
     0
100
AcDbMText
 10
98.0
 20
203.726707827222
 30
0.0
 40
2.5
 41
0.0
 71
     5
 72
     1
  1
\A1;4.2
  7
KANJI
 73
     1
 44
1.0
1001
ACAD
1000
MTEXTBEGIN
1070
    73
1070
     1
1070
    44
1040
1.0
1070
    74
1070
     0
1000
MTEXTEND
  0
POINT
  5
46E
330
465
100
AcDbEntity
  8
DEFPOINTS
 62
     0
370
    -3
100
AcDbPoint
 10
102.412529564353
 20
206.7896932442536
 30
0.0
  0
POINT
  5
46F
330
465
100
AcDbEntity
  8
DEFPOINTS
 62
     0
370
    -3
100
AcDbPoint
 10
106.612529564353
 20
206.7896932442537
 30
0.0
  0
POINT
  5
470
330
465
100
AcDbEntity
  8
DEFPOINTS
 62
     0
370
    -3
100
AcDbPoint
 10
106.612529564353
 20
202.0600411605554
 30
0.0
  0
ENDBLK
  5
471
330
465
100
AcDbEntity
  8
0
100
AcDbBlockEnd
  0
BLOCK
  5
473
330
472
100
AcDbEntity
  8
0
370
    -3
100
AcDbBlockBegin
  2
*D4
 70
     1
 10
0.0
 20
0.0
 30
0.0
  3
*D4
  1

  0
LINE
  5
474
330
472
100
AcDbEntity
  8
画層1
 62
     0
370
    -2
100
AcDbLine
 10
54.78446456427992
 20
174.3578442254575
 30
0.0
 11
54.78446456427992
 21
160.9752732722687
 31
0.0
  0
LINE
  5
475
330
472
100
AcDbEntity
  8
画層1
 62
     0
370
    -2
100
AcDbLine
 10
40.78446456427979
 20
174.3578442254575
 30
0.0
 11
40.78446456427979
 21
160.9752732722687
 31
0.0
  0
LINE
  5
476
330
472
100
AcDbEntity
  8
画層1
 62
     0
370
    -2
100
AcDbLine
 10
53.53446456427992
 20
162.2252732722687
 30
0.0
 11
42.03446456427979
 21
162.2252732722687
 31
0.0
  0
INSERT
  5
477
330
472
100
AcDbEntity
  8
画層1
 62
     0
370
    -2
100
AcDbBlockReference
  2
_OPEN
 10
54.78446456427992
 20
162.2252732722687
 30
0.0
 41
1.25
 42
1.25
 43
1.25
  0
INSERT
  5
478
330
472
100
AcDbEntity
  8
画層1
 62
     0
370
    -2
100
AcDbBlockReference
  2
_OPEN
 10
40.78446456427979
 20
162.2252732722687
 30
0.0
 41
1.25
 42
1.25
 43
1.25
 50
180.0
  0
MTEXT
  5
479
330
472
100
AcDbEntity
  8
画層1
 62
     0
370
    -3
100
AcDbMText
 10
47.78446456427984
 20
163.8919399389354
 30
0.0
 40
2.5
 41
0.0
 71
     5
 72
     1
  1
\A1;14
  7
KANJI
 73
     1
 44
1.0
1001
ACAD
1000
MTEXTBEGIN
1070
    73
1070
     1
1070
    44
1040
1.0
1070
    74
1070
     0
1000
MTEXTEND
  0
POINT
  5
47A
330
472
100
AcDbEntity
  8
DEFPOINTS
 62
     0
370
    -3
100
AcDbPoint
 10
54.78446456427992
 20
175.1911775587908
 30
0.0
  0
POINT
  5
47B
330
472
100
AcDbEntity
  8
DEFPOINTS
 62
     0
370
    -3
100
AcDbPoint
 10
40.78446456427979
 20
175.1911775587908
 30
0.0
  0
POINT
  5
47C
330
472
100
AcDbEntity
  8
DEFPOINTS
 62
     0
370
    -3
100
AcDbPoint
 10
40.78446456427979
 20
162.2252732722687
 30
0.0
  0
ENDBLK
  5
47D
330
472
100
AcDbEntity
  8
0
370
    -3
100
AcDbBlockEnd
  0
BLOCK
  5
47F
330
47E
100
AcDbEntity
  8
0
370
    -3
100
AcDbBlockBegin
  2
*D5
 70
     1
 10
0.0
 20
0.0
 30
0.0
  3
*D5
  1

  0
LINE
  5
480
330
47E
100
AcDbEntity
  8
画層1
 62
     0
370
    -2
100
AcDbLine
 10
26.7844645642798
 20
174.3578442254572
 30
0.0
 11
26.7844645642798
 21
160.9752732722687
 31
0.0
  0
LINE
  5
481
330
47E
100
AcDbEntity
  8
画層1
 62
     0
370
    -2
100
AcDbLine
 10
40.78446456427979
 20
174.3578442254572
 30
0.0
 11
40.78446456427979
 21
160.9752732722687
 31
0.0
  0
LINE
  5
482
330
47E
100
AcDbEntity
  8
画層1
 62
     0
370
    -2
100
AcDbLine
 10
28.0344645642798
 20
162.2252732722687
 30
0.0
 11
39.53446456427979
 21
162.2252732722687
 31
0.0
  0
INSERT
  5
483
330
47E
100
AcDbEntity
  8
画層1
 62
     0
370
    -2
100
AcDbBlockReference
  2
_OPEN
 10
26.7844645642798
 20
162.2252732722687
 30
0.0
 41
1.25
 42
1.25
 43
1.25
 50
180.0
  0
INSERT
  5
484
330
47E
100
AcDbEntity
  8
画層1
 62
     0
370
    -2
100
AcDbBlockReference
  2
_OPEN
 10
40.78446456427979
 20
162.2252732722687
 30
0.0
 41
1.25
 42
1.25
 43
1.25
  0
MTEXT
  5
485
330
47E
100
AcDbEntity
  8
画層1
 62
     0
370
    -3
100
AcDbMText
 10
33.7844645642798
 20
163.8919399389354
 30
0.0
 40
2.5
 41
0.0
 71
     5
 72
     1
  1
\A1;14
  7
KANJI
 73
     1
 44
1.0
1001
ACAD
1000
MTEXTBEGIN
1070
    73
1070
     1
1070
    44
1040
1.0
1070
    74
1070
     0
1000
MTEXTEND
  0
POINT
  5
486
330
47E
100
AcDbEntity
  8
DEFPOINTS
 62
     0
370
    -3
100
AcDbPoint
 10
26.7844645642798
 20
175.1911775587906
 30
0.0
  0
POINT
  5
487
330
47E
100
AcDbEntity
  8
DEFPOINTS
 62
     0
370
    -3
100
AcDbPoint
 10
40.78446456427979
 20
175.1911775587906
 30
0.0
  0
POINT
  5
488
330
47E
100
AcDbEntity
  8
DEFPOINTS
 62
     0
370
    -3
100
AcDbPoint
 10
40.78446456427979
 20
162.2252732722687
 30
0.0
  0
ENDBLK
  5
489
330
47E
100
AcDbEntity
  8
0
370
    -3
100
AcDbBlockEnd
  0
BLOCK
  5
48B
330
48A
100
AcDbEntity
  8
0
370
    -3
100
AcDbBlockBegin
  2
*D6
 70
     1
 10
0.0
 20
0.0
 30
0.0
  3
*D6
  1

  0
LINE
  5
48C
330
48A
100
AcDbEntity
  8
画層1
 62
     0
370
    -2
100
AcDbLine
 10
58.41779789761318
 20
171.0124315030525
 30
0.0
 11
72.65204383807406
 21
171.0124315030525
 31
0.0
  0
LINE
  5
48D
330
48A
100
AcDbEntity
  8
画層1
 62
     0
370
    -2
100
AcDbLine
 10
61.61779789761302
 20
182.0124315030524
 30
0.0
 11
72.65204383807406
 21
182.0124315030524
 31
0.0
  0
LINE
  5
48E
330
48A
100
AcDbEntity
  8
画層1
 62
     0
370
    -2
100
AcDbLine
 10
71.40204383807406
 20
172.2624315030525
 30
0.0
 11
71.40204383807406
 21
180.7624315030524
 31
0.0
  0
INSERT
  5
48F
330
48A
100
AcDbEntity
  8
画層1
 62
     0
370
    -2
100
AcDbBlockReference
  2
_OPEN
 10
71.40204383807406
 20
171.0124315030525
 30
0.0
 41
1.25
 42
1.25
 43
1.25
 50
270.0
  0
INSERT
  5
490
330
48A
100
AcDbEntity
  8
画層1
 62
     0
370
    -2
100
AcDbBlockReference
  2
_OPEN
 10
71.40204383807406
 20
182.0124315030524
 30
0.0
 41
1.25
 42
1.25
 43
1.25
 50
90.0
  0
MTEXT
  5
491
330
48A
100
AcDbEntity
  8
画層1
 62
     0
370
    -3
100
AcDbMText
 10
69.73537717140735
 20
176.5124315030525
 30
0.0
 40
2.5
 41
0.0
 71
     5
 72
     1
  1
\A1;11
  7
KANJI
 11
0.0000000000000001
 21
1.0
 31
0.0
 73
     1
 44
1.0
1001
ACAD
1000
MTEXTBEGIN
1070
    73
1070
     1
1070
    44
1040
1.0
1070
    74
1070
     0
1000
MTEXTEND
  0
POINT
  5
492
330
48A
100
AcDbEntity
  8
DEFPOINTS
 62
     0
370
    -3
100
AcDbPoint
 10
57.58446456427984
 20
171.0124315030525
 30
0.0
  0
POINT
  5
493
330
48A
100
AcDbEntity
  8
DEFPOINTS
 62
     0
370
    -3
100
AcDbPoint
 10
60.78446456427968
 20
182.0124315030524
 30
0.0
  0
POINT
  5
494
330
48A
100
AcDbEntity
  8
DEFPOINTS
 62
     0
370
    -3
100
AcDbPoint
 10
71.40204383807406
 20
182.0124315030524
 30
0.0
  0
ENDBLK
  5
495
330
48A
100
AcDbEntity
  8
0
370
    -3
100
AcDbBlockEnd
  0
BLOCK
  5
497
330
496
100
AcDbEntity
  8
0
370
    -3
100
AcDbBlockBegin
  2
*D7
 70
     1
 10
0.0
 20
0.0
 30
0.0
  3
*D7
  1

  0
LINE
  5
498
330
496
100
AcDbEntity
  8
画層1
 62
     0
370
    -2
100
AcDbLine
 10
108.1458628976864
 20
206.0896932442536
 30
0.0
 11
114.5909217730191
 21
206.0896932442536
 31
0.0
  0
LINE
  5
499
330
496
100
AcDbEntity
  8
画層1
 62
     0
370
    -2
100
AcDbLine
 10
107.8458628976863
 20
217.0896932442535
 30
0.0
 11
114.5909217730191
 21
217.0896932442535
 31
0.0
  0
LINE
  5
49A
330
496
100
AcDbEntity
  8
画層1
 62
     0
370
    -2
100
AcDbLine
 10
113.3409217730191
 20
207.3396932442536
 30
0.0
 11
113.3409217730191
 21
215.8396932442534
 31
0.0
  0
INSERT
  5
49B
330
496
100
AcDbEntity
  8
画層1
 62
     0
370
    -2
100
AcDbBlockReference
  2
_OPEN
 10
113.3409217730191
 20
206.0896932442536
 30
0.0
 41
1.25
 42
1.25
 43
1.25
 50
270.0
  0
INSERT
  5
49C
330
496
100
AcDbEntity
  8
画層1
 62
     0
370
    -2
100
AcDbBlockReference
  2
_OPEN
 10
113.3409217730191
 20
217.0896932442535
 30
0.0
 41
1.25
 42
1.25
 43
1.25
 50
90.0
  0
MTEXT
  5
49D
330
496
100
AcDbEntity
  8
画層1
 62
     0
370
    -3
100
AcDbMText
 10
111.6742551063524
 20
211.5896932442535
 30
0.0
 40
2.5
 41
0.0
 71
     5
 72
     1
  1
\A1;11
  7
KANJI
 11
0.0000000000000001
 21
1.0
 31
0.0
 73
     1
 44
1.0
1001
ACAD
1000
MTEXTBEGIN
1070
    73
1070
     1
1070
    44
1040
1.0
1070
    74
1070
     0
1000
MTEXTEND
  0
POINT
  5
49E
330
496
100
AcDbEntity
  8
DEFPOINTS
 62
     0
370
    -3
100
AcDbPoint
 10
107.3125295643531
 20
206.0896932442536
 30
0.0
  0
POINT
  5
49F
330
496
100
AcDbEntity
  8
DEFPOINTS
 62
     0
370
    -3
100
AcDbPoint
 10
107.012529564353
 20
217.0896932442535
 30
0.0
  0
POINT
  5
4A0
330
496
100
AcDbEntity
  8
DEFPOINTS
 62
     0
370
    -3
100
AcDbPoint
 10
113.3409217730191
 20
217.0896932442535
 30
0.0
  0
ENDBLK
  5
4A1
330
496
100
AcDbEntity
  8
0
370
    -3
100
AcDbBlockEnd
  0
BLOCK
  5
5F3
330
5E9
100
AcDbEntity
  8
0
100
AcDbBlockBegin
  2
*D8
 70
     1
 10
0.0
 20
0.0
 30
0.0
  3
*D8
  1

  0
LINE
  5
68B
330
5E9
100
AcDbEntity
  8
画層1
 62
     0
370
    -2
100
AcDbLine
 10
223.8856087660752
 20
189.311252501198
 30
0.0
 11
223.8856087660752
 21
177.1319149524165
 31
0.0
  0
LINE
  5
68C
330
5E9
100
AcDbEntity
  8
画層1
 62
     0
370
    -2
100
AcDbLine
 10
230.8856087660753
 20
189.3112525011981
 30
0.0
 11
230.8856087660753
 21
177.1319149524165
 31
0.0
  0
LINE
  5
68D
330
5E9
100
AcDbEntity
  8
画層1
 62
     0
370
    -2
100
AcDbLine
 10
225.1356087660752
 20
178.3819149524165
 30
0.0
 11
229.6356087660754
 21
178.3819149524165
 31
0.0
  0
INSERT
  5
68E
330
5E9
100
AcDbEntity
  8
画層1
 62
     0
370
    -2
100
AcDbBlockReference
  2
_OPEN
 10
223.8856087660752
 20
178.3819149524165
 30
0.0
 41
1.25
 42
1.25
 43
1.25
 50
180.0
  0
INSERT
  5
68F
330
5E9
100
AcDbEntity
  8
画層1
 62
     0
370
    -2
100
AcDbBlockReference
  2
_OPEN
 10
230.8856087660753
 20
178.3819149524165
 30
0.0
 41
1.25
 42
1.25
 43
1.25
  0
MTEXT
  5
690
330
5E9
100
AcDbEntity
  8
画層1
 62
     0
100
AcDbMText
 10
227.3856087660753
 20
180.0485816190831
 30
0.0
 40
2.5
 41
0.0
 71
     5
 72
     1
  1
\A1;7
  7
KANJI
 73
     1
 44
1.0
1001
ACAD
1000
MTEXTBEGIN
1070
    73
1070
     1
1070
    44
1040
1.0
1070
    74
1070
     0
1000
MTEXTEND
  0
POINT
  5
691
330
5E9
100
AcDbEntity
  8
DEFPOINTS
 62
     0
100
AcDbPoint
 10
223.8856087660752
 20
190.1445858345313
 30
0.0
  0
POINT
  5
692
330
5E9
100
AcDbEntity
  8
DEFPOINTS
 62
     0
100
AcDbPoint
 10
230.8856087660753
 20
190.1445858345315
 30
0.0
  0
POINT
  5
693
330
5E9
100
AcDbEntity
  8
DEFPOINTS
 62
     0
100
AcDbPoint
 10
230.8856087660753
 20
178.3819149524165
 30
0.0
  0
ENDBLK
  5
5F4
330
5E9
100
AcDbEntity
  8
0
100
AcDbBlockEnd
  0
BLOCK
  5
5FF
330
5F5
100
AcDbEntity
  8
0
100
AcDbBlockBegin
  2
*D9
 70
     1
 10
0.0
 20
0.0
 30
0.0
  3
*D9
  1

  0
LINE
  5
694
330
5F5
100
AcDbEntity
  8
画層1
 62
     0
370
    -2
100
AcDbLine
 10
223.7522754327418
 20
189.4445858345314
 30
0.0
 11
218.7611977264661
 21
189.4445858345314
 31
0.0
  0
LINE
  5
695
330
5F5
100
AcDbEntity
  8
画層1
 62
     0
370
    -2
100
AcDbLine
 10
226.5522754327421
 20
195.4445858345312
 30
0.0
 11
218.7611977264661
 21
195.4445858345312
 31
0.0
  0
LINE
  5
696
330
5F5
100
AcDbEntity
  8
画層1
 62
     0
370
    -2
100
AcDbLine
 10
220.0111977264661
 20
190.6945858345314
 30
0.0
 11
220.0111977264661
 21
194.1945858345312
 31
0.0
  0
INSERT
  5
697
330
5F5
100
AcDbEntity
  8
画層1
 62
     0
370
    -2
100
AcDbBlockReference
  2
_OPEN
 10
220.0111977264661
 20
189.4445858345314
 30
0.0
 41
1.25
 42
1.25
 43
1.25
 50
270.0
  0
INSERT
  5
698
330
5F5
100
AcDbEntity
  8
画層1
 62
     0
370
    -2
100
AcDbBlockReference
  2
_OPEN
 10
220.0111977264661
 20
195.4445858345312
 30
0.0
 41
1.25
 42
1.25
 43
1.25
 50
90.0
  0
MTEXT
  5
699
330
5F5
100
AcDbEntity
  8
画層1
 62
     0
100
AcDbMText
 10
218.3445310597994
 20
192.4445858345314
 30
0.0
 40
2.5
 41
0.0
 71
     5
 72
     1
  1
\A1;6
  7
KANJI
 11
0.0000000000000001
 21
1.0
 31
0.0
 73
     1
 44
1.0
1001
ACAD
1000
MTEXTBEGIN
1070
    73
1070
     1
1070
    44
1040
1.0
1070
    74
1070
     0
1000
MTEXTEND
  0
POINT
  5
69A
330
5F5
100
AcDbEntity
  8
DEFPOINTS
 62
     0
100
AcDbPoint
 10
224.5856087660751
 20
189.4445858345314
 30
0.0
  0
POINT
  5
69B
330
5F5
100
AcDbEntity
  8
DEFPOINTS
 62
     0
100
AcDbPoint
 10
227.3856087660754
 20
195.4445858345312
 30
0.0
  0
POINT
  5
69C
330
5F5
100
AcDbEntity
  8
DEFPOINTS
 62
     0
100
AcDbPoint
 10
220.0111977264661
 20
195.4445858345312
 30
0.0
  0
ENDBLK
  5
600
330
5F5
100
AcDbEntity
  8
0
100
AcDbBlockEnd
  0
BLOCK
  5
60C
330
601
100
AcDbEntity
  8
0
100
AcDbBlockBegin
  2
*D10
 70
     1
 10
0.0
 20
0.0
 30
0.0
  3
*D10
  1

  0
LINE
  5
69D
330
601
100
AcDbEntity
  8
画層1
 62
     0
370
    -2
100
AcDbLine
 10
225.2856087660753
 20
189.3112525011981
 30
0.0
 11
225.2856087660753
 21
184.1649337508332
 31
0.0
  0
LINE
  5
69E
330
601
100
AcDbEntity
  8
画層1
 62
     0
370
    -2
100
AcDbLine
 10
229.4856087660753
 20
189.3112525011982
 30
0.0
 11
229.4856087660753
 21
184.1649337508332
 31
0.0
  0
LINE
  5
69F
330
601
100
AcDbEntity
  8
画層1
 62
     0
370
    -2
100
AcDbLine
 10
228.2356087660753
 20
185.4149337508332
 30
0.0
 11
226.5356087660753
 21
185.4149337508332
 31
0.0
  0
LINE
  5
6A0
330
601
100
AcDbEntity
  8
画層1
 62
     0
370
    -2
100
AcDbLine
 10
225.2856087660753
 20
185.4149337508332
 30
0.0
 11
217.8373649160079
 21
185.4149337508332
 31
0.0
  0
INSERT
  5
6A1
330
601
100
AcDbEntity
  8
画層1
 62
     0
370
    -2
100
AcDbBlockReference
  2
_OPEN
 10
229.4856087660753
 20
185.4149337508332
 30
0.0
 41
1.25
 42
1.25
 43
1.25
  0
INSERT
  5
6A2
330
601
100
AcDbEntity
  8
画層1
 62
     0
370
    -2
100
AcDbBlockReference
  2
_OPEN
 10
225.2856087660753
 20
185.4149337508332
 30
0.0
 41
1.25
 42
1.25
 43
1.25
 50
180.0
  0
MTEXT
  5
6A3
330
601
100
AcDbEntity
  8
画層1
 62
     0
100
AcDbMText
 10
220.8730792017222
 20
187.0816004174999
 30
0.0
 40
2.5
 41
0.0
 71
     5
 72
     1
  1
\A1;4.2
  7
KANJI
 73
     1
 44
1.0
1001
ACAD
1000
MTEXTBEGIN
1070
    73
1070
     1
1070
    44
1040
1.0
1070
    74
1070
     0
1000
MTEXTEND
  0
POINT
  5
6A4
330
601
100
AcDbEntity
  8
DEFPOINTS
 62
     0
100
AcDbPoint
 10
225.2856087660753
 20
190.1445858345314
 30
0.0
  0
POINT
  5
6A5
330
601
100
AcDbEntity
  8
DEFPOINTS
 62
     0
100
AcDbPoint
 10
229.4856087660753
 20
190.1445858345315
 30
0.0
  0
POINT
  5
6A6
330
601
100
AcDbEntity
  8
DEFPOINTS
 62
     0
100
AcDbPoint
 10
229.4856087660753
 20
185.4149337508332
 30
0.0
  0
ENDBLK
  5
60D
330
601
100
AcDbEntity
  8
0
100
AcDbBlockEnd
  0
BLOCK
  5
618
330
60E
100
AcDbEntity
  8
0
100
AcDbBlockBegin
  2
*D11
 70
     1
 10
0.0
 20
0.0
 30
0.0
  3
*D11
  1

  0
LINE
  5
65A
330
60E
100
AcDbEntity
  8
画層1
 62
     0
370
    -2
100
AcDbLine
 10
177.657543766002
 20
176.02540769785
 30
0.0
 11
177.657543766002
 21
162.6428367446613
 31
0.0
  0
LINE
  5
65B
330
60E
100
AcDbEntity
  8
画層1
 62
     0
370
    -2
100
AcDbLine
 10
163.6575437660019
 20
176.02540769785
 30
0.0
 11
163.6575437660019
 21
162.6428367446613
 31
0.0
  0
LINE
  5
65C
330
60E
100
AcDbEntity
  8
画層1
 62
     0
370
    -2
100
AcDbLine
 10
176.407543766002
 20
163.8928367446613
 30
0.0
 11
164.9075437660019
 21
163.8928367446613
 31
0.0
  0
INSERT
  5
65D
330
60E
100
AcDbEntity
  8
画層1
 62
     0
370
    -2
100
AcDbBlockReference
  2
_OPEN
 10
177.657543766002
 20
163.8928367446613
 30
0.0
 41
1.25
 42
1.25
 43
1.25
  0
INSERT
  5
65E
330
60E
100
AcDbEntity
  8
画層1
 62
     0
370
    -2
100
AcDbBlockReference
  2
_OPEN
 10
163.6575437660019
 20
163.8928367446613
 30
0.0
 41
1.25
 42
1.25
 43
1.25
 50
180.0
  0
MTEXT
  5
65F
330
60E
100
AcDbEntity
  8
画層1
 62
     0
370
    -3
100
AcDbMText
 10
170.657543766002
 20
165.5595034113279
 30
0.0
 40
2.5
 41
0.0
 71
     5
 72
     1
  1
\A1;14
  7
KANJI
 73
     1
 44
1.0
1001
ACAD
1000
MTEXTBEGIN
1070
    73
1070
     1
1070
    44
1040
1.0
1070
    74
1070
     0
1000
MTEXTEND
  0
POINT
  5
660
330
60E
100
AcDbEntity
  8
DEFPOINTS
 62
     0
100
AcDbPoint
 10
177.657543766002
 20
176.8587410311834
 30
0.0
  0
POINT
  5
661
330
60E
100
AcDbEntity
  8
DEFPOINTS
 62
     0
100
AcDbPoint
 10
163.6575437660019
 20
176.8587410311834
 30
0.0
  0
POINT
  5
662
330
60E
100
AcDbEntity
  8
DEFPOINTS
 62
     0
100
AcDbPoint
 10
163.6575437660019
 20
163.8928367446613
 30
0.0
  0
ENDBLK
  5
619
330
60E
100
AcDbEntity
  8
0
100
AcDbBlockEnd
  0
BLOCK
  5
624
330
61A
100
AcDbEntity
  8
0
100
AcDbBlockBegin
  2
*D12
 70
     1
 10
0.0
 20
0.0
 30
0.0
  3
*D12
  1

  0
LINE
  5
663
330
61A
100
AcDbEntity
  8
画層1
 62
     0
370
    -2
100
AcDbLine
 10
149.6575437660019
 20
176.0254076978498
 30
0.0
 11
149.6575437660019
 21
162.6428367446613
 31
0.0
  0
LINE
  5
664
330
61A
100
AcDbEntity
  8
画層1
 62
     0
370
    -2
100
AcDbLine
 10
163.6575437660019
 20
176.0254076978498
 30
0.0
 11
163.6575437660019
 21
162.6428367446613
 31
0.0
  0
LINE
  5
665
330
61A
100
AcDbEntity
  8
画層1
 62
     0
370
    -2
100
AcDbLine
 10
150.9075437660019
 20
163.8928367446613
 30
0.0
 11
162.4075437660019
 21
163.8928367446613
 31
0.0
  0
INSERT
  5
666
330
61A
100
AcDbEntity
  8
画層1
 62
     0
370
    -2
100
AcDbBlockReference
  2
_OPEN
 10
149.6575437660019
 20
163.8928367446613
 30
0.0
 41
1.25
 42
1.25
 43
1.25
 50
180.0
  0
INSERT
  5
667
330
61A
100
AcDbEntity
  8
画層1
 62
     0
370
    -2
100
AcDbBlockReference
  2
_OPEN
 10
163.6575437660019
 20
163.8928367446613
 30
0.0
 41
1.25
 42
1.25
 43
1.25
  0
MTEXT
  5
668
330
61A
100
AcDbEntity
  8
画層1
 62
     0
370
    -3
100
AcDbMText
 10
156.6575437660019
 20
165.5595034113279
 30
0.0
 40
2.5
 41
0.0
 71
     5
 72
     1
  1
\A1;14
  7
KANJI
 73
     1
 44
1.0
1001
ACAD
1000
MTEXTBEGIN
1070
    73
1070
     1
1070
    44
1040
1.0
1070
    74
1070
     0
1000
MTEXTEND
  0
POINT
  5
669
330
61A
100
AcDbEntity
  8
DEFPOINTS
 62
     0
100
AcDbPoint
 10
149.6575437660019
 20
176.8587410311831
 30
0.0
  0
POINT
  5
66A
330
61A
100
AcDbEntity
  8
DEFPOINTS
 62
     0
100
AcDbPoint
 10
163.6575437660019
 20
176.8587410311831
 30
0.0
  0
POINT
  5
66B
330
61A
100
AcDbEntity
  8
DEFPOINTS
 62
     0
100
AcDbPoint
 10
163.6575437660019
 20
163.8928367446613
 30
0.0
  0
ENDBLK
  5
625
330
61A
100
AcDbEntity
  8
0
100
AcDbBlockEnd
  0
BLOCK
  5
630
330
626
100
AcDbEntity
  8
0
100
AcDbBlockBegin
  2
*D13
 70
     1
 10
0.0
 20
0.0
 30
0.0
  3
*D13
  1

  0
LINE
  5
66C
330
626
100
AcDbEntity
  8
画層1
 62
     0
370
    -2
100
AcDbLine
 10
181.2908770993353
 20
172.6799949754451
 30
0.0
 11
195.5251230397961
 21
172.679994975445
 31
0.0
  0
LINE
  5
66D
330
626
100
AcDbEntity
  8
画層1
 62
     0
370
    -2
100
AcDbLine
 10
184.4908770993351
 20
183.679994975445
 30
0.0
 11
195.5251230397961
 21
183.6799949754449
 31
0.0
  0
LINE
  5
66E
330
626
100
AcDbEntity
  8
画層1
 62
     0
370
    -2
100
AcDbLine
 10
194.2751230397961
 20
173.929994975445
 30
0.0
 11
194.2751230397961
 21
182.4299949754449
 31
0.0
  0
INSERT
  5
66F
330
626
100
AcDbEntity
  8
画層1
 62
     0
370
    -2
100
AcDbBlockReference
  2
_OPEN
 10
194.2751230397961
 20
172.679994975445
 30
0.0
 41
1.25
 42
1.25
 43
1.25
 50
270.0
  0
INSERT
  5
670
330
626
100
AcDbEntity
  8
画層1
 62
     0
370
    -2
100
AcDbBlockReference
  2
_OPEN
 10
194.2751230397961
 20
183.6799949754449
 30
0.0
 41
1.25
 42
1.25
 43
1.25
 50
90.0
  0
MTEXT
  5
671
330
626
100
AcDbEntity
  8
画層1
 62
     0
370
    -3
100
AcDbMText
 10
192.6084563731295
 20
178.179994975445
 30
0.0
 40
2.5
 41
0.0
 71
     5
 72
     1
  1
\A1;11
  7
KANJI
 11
0.0000000000000001
 21
1.0
 31
0.0
 73
     1
 44
1.0
1001
ACAD
1000
MTEXTBEGIN
1070
    73
1070
     1
1070
    44
1040
1.0
1070
    74
1070
     0
1000
MTEXTEND
  0
POINT
  5
672
330
626
100
AcDbEntity
  8
DEFPOINTS
 62
     0
100
AcDbPoint
 10
180.457543766002
 20
172.6799949754451
 30
0.0
  0
POINT
  5
673
330
626
100
AcDbEntity
  8
DEFPOINTS
 62
     0
100
AcDbPoint
 10
183.6575437660018
 20
183.679994975445
 30
0.0
  0
POINT
  5
674
330
626
100
AcDbEntity
  8
DEFPOINTS
 62
     0
100
AcDbPoint
 10
194.2751230397961
 20
183.6799949754449
 30
0.0
  0
ENDBLK
  5
631
330
626
100
AcDbEntity
  8
0
100
AcDbBlockEnd
  0
BLOCK
  5
63C
330
632
100
AcDbEntity
  8
0
100
AcDbBlockBegin
  2
*D14
 70
     1
 10
0.0
 20
0.0
 30
0.0
  3
*D14
  1

  0
LINE
  5
6A7
330
632
100
AcDbEntity
  8
画層1
 62
     0
370
    -2
100
AcDbLine
 10
231.0189420994086
 20
189.4445858345314
 30
0.0
 11
237.4640009747412
 21
189.4445858345314
 31
0.0
  0
LINE
  5
6A8
330
632
100
AcDbEntity
  8
画層1
 62
     0
370
    -2
100
AcDbLine
 10
230.7189420994085
 20
200.4445858345313
 30
0.0
 11
237.4640009747412
 21
200.4445858345313
 31
0.0
  0
LINE
  5
6A9
330
632
100
AcDbEntity
  8
画層1
 62
     0
370
    -2
100
AcDbLine
 10
236.2140009747412
 20
190.6945858345314
 30
0.0
 11
236.2140009747413
 21
199.1945858345313
 31
0.0
  0
INSERT
  5
6AA
330
632
100
AcDbEntity
  8
画層1
 62
     0
370
    -2
100
AcDbBlockReference
  2
_OPEN
 10
236.2140009747412
 20
189.4445858345314
 30
0.0
 41
1.25
 42
1.25
 43
1.25
 50
270.0
  0
INSERT
  5
6AB
330
632
100
AcDbEntity
  8
画層1
 62
     0
370
    -2
100
AcDbBlockReference
  2
_OPEN
 10
236.2140009747413
 20
200.4445858345313
 30
0.0
 41
1.25
 42
1.25
 43
1.25
 50
90.0
  0
MTEXT
  5
6AC
330
632
100
AcDbEntity
  8
画層1
 62
     0
370
    -3
100
AcDbMText
 10
234.5473343080745
 20
194.9445858345314
 30
0.0
 40
2.5
 41
0.0
 71
     5
 72
     1
  1
\A1;11
  7
KANJI
 11
0.0000000000000001
 21
1.0
 31
0.0
 73
     1
 44
1.0
1001
ACAD
1000
MTEXTBEGIN
1070
    73
1070
     1
1070
    44
1040
1.0
1070
    74
1070
     0
1000
MTEXTEND
  0
POINT
  5
6AD
330
632
100
AcDbEntity
  8
DEFPOINTS
 62
     0
100
AcDbPoint
 10
230.1856087660753
 20
189.4445858345314
 30
0.0
  0
POINT
  5
6AE
330
632
100
AcDbEntity
  8
DEFPOINTS
 62
     0
100
AcDbPoint
 10
229.8856087660752
 20
200.4445858345313
 30
0.0
  0
POINT
  5
6AF
330
632
100
AcDbEntity
  8
DEFPOINTS
 62
     0
100
AcDbPoint
 10
236.2140009747413
 20
200.4445858345313
 30
0.0
  0
ENDBLK
  5
63D
330
632
100
AcDbEntity
  8
0
100
AcDbBlockEnd
  0
ENDSEC
  0
SECTION
  2
ENTITIES
  0
LINE
  5
59
330
22
100
AcDbEntity
  8
_0-1_
  6
Continuous
 62
     3
100
AcDbLine
 10
109.9137829426253
 20
10.0820392438058
 30
0.0
 11
109.5910479758758
 21
10.0820392438058
 31
0.0
  0
LINE
  5
5A
330
22
100
AcDbEntity
  8
_0-1_
  6
Continuous
 62
     3
100
AcDbLine
 10
109.5910479758758
 20
10.0820392438058
 30
0.0
 11
109.5910479758758
 21
280.3556131669723
 31
0.0
  0
LINE
  5
5B
330
22
100
AcDbEntity
  8
_0-1_
  6
Continuous
 62
     3
100
AcDbLine
 10
289.7482074636524
 20
280.3556131669723
 30
0.0
 11
289.7482074636524
 21
10.0820392438058
 31
0.0
  0
LINE
  5
5C
330
22
100
AcDbEntity
  8
_0-1_
  6
Continuous
 62
     3
100
AcDbLine
 10
109.5910479758758
 20
280.3556131669723
 30
0.0
 11
289.7482074636524
 21
280.3556131669723
 31
0.0
  0
LINE
  5
5D
330
22
100
AcDbEntity
  8
_0-1_
  6
Continuous
 62
     3
100
AcDbLine
 10
289.7482074636524
 20
10.0820392438058
 30
0.0
 11
109.5910479758758
 21
10.0820392438058
 31
0.0
  0
LINE
  5
5E
330
22
100
AcDbEntity
  8
_0-1_
  6
Continuous
 62
     3
100
AcDbLine
 10
289.7482074636524
 20
25.08203924380581
 30
0.0
 11
109.5910479758758
 21
25.08203924380581
 31
0.0
  0
LINE
  5
5F
330
22
100
AcDbEntity
  8
_0-1_
  6
Continuous
 62
     3
100
AcDbLine
 10
169.5910479758758
 20
10.0820392438058
 30
0.0
 11
169.5910479758758
 21
25.08203924380581
 31
0.0
  0
LINE
  5
60
330
22
100
AcDbEntity
  8
_0-1_
  6
Continuous
 62
     3
100
AcDbLine
 10
229.5910479758759
 20
10.0820392438058
 30
0.0
 11
229.5910479758759
 21
25.08203924380581
 31
0.0
  0
TEXT
  5
61
330
22
100
AcDbEntity
  8
_0-1_
 62
     7
100
AcDbText
 10
111.5363389395928
 20
21.57720765544398
 30
0.0
 40
2.0
  1
ＴＩＴＬＥ
100
AcDbText
  0
TEXT
  5
62
330
22
100
AcDbEntity
  8
_0-1_
 62
     7
100
AcDbText
 10
171.4616892036262
 20
21.32542046946065
 30
0.0
 40
2.0
  1
ＭＯＤＥＬ
100
AcDbText
  0
TEXT
  5
63
330
22
100
AcDbEntity
  8
_0-1_
 62
     7
100
AcDbText
 10
236.2458655108208
 20
15.19894081377248
 30
0.0
 40
4.0
  1
日伸制御機工株式会社
100
AcDbText
  0
TEXT
  5
64
330
22
100
AcDbEntity
  8
_0-1_
 62
     7
100
AcDbText
 10
119.5027624309392
 20
14.37845303867405
 30
0.0
 40
4.0
  1
スパークケンチャー
100
AcDbText
  0
TEXT
  5
19E
330
22
100
AcDbEntity
  8
_0-1_
 62
     7
100
AcDbText
 10
183.5469613259668
 20
14.8425414364641
 30
0.0
 40
4.0
  1
SQ25050 3FS
100
AcDbText
  0
LINE
  5
54F
330
22
100
AcDbEntity
  8
0
 62
     7
100
AcDbLine
 10
143.6575437660018
 20
204.679994975445
 30
0.0
 11
183.6575437660018
 21
204.679994975445
 31
0.0
  0
LINE
  5
550
330
22
100
AcDbEntity
  8
0
 62
     7
100
AcDbLine
 10
183.6575437660018
 20
204.679994975445
 30
0.0
 11
183.6575437660018
 21
183.679994975445
 31
0.0
  0
LINE
  5
551
330
22
100
AcDbEntity
  8
0
 62
     7
100
AcDbLine
 10
143.6575437660018
 20
183.679994975445
 30
0.0
 11
183.6575437660018
 21
183.679994975445
 31
0.0
  0
LINE
  5
552
330
22
100
AcDbEntity
  8
0
 62
     7
100
AcDbLine
 10
143.6575437660018
 20
204.679994975445
 30
0.0
 11
143.6575437660018
 21
183.679994975445
 31
0.0
  0
LINE
  5
553
330
22
100
AcDbEntity
  8
0
 62
     7
100
AcDbLine
 10
143.6575437660018
 20
132.0303702588148
 30
0.0
 11
143.6575437660018
 21
106.0303702588148
 31
0.0
  0
LINE
  5
554
330
22
100
AcDbEntity
  8
0
 62
     7
100
AcDbLine
 10
183.6575437660018
 20
132.0303702588148
 30
0.0
 11
183.6575437660018
 21
106.0303702588148
 31
0.0
  0
LINE
  5
555
330
22
100
AcDbEntity
  8
0
 62
     7
100
AcDbLine
 10
144.1575437660018
 20
105.5303702588148
 30
0.0
 11
183.1575437660018
 21
105.5303702588148
 31
0.0
  0
ARC
  5
556
330
22
100
AcDbEntity
  8
0
 62
     7
100
AcDbCircle
 10
183.1575437660018
 20
106.0303702588148
 30
0.0
 40
0.5
100
AcDbArc
 50
270.0
 51
0.0
  0
ARC
  5
557
330
22
100
AcDbEntity
  8
0
 62
     7
100
AcDbCircle
 10
144.1575437660018
 20
106.0303702588148
 30
0.0
 40
0.5
100
AcDbArc
 50
180.0
 51
270.0
  0
LINE
  5
558
330
22
100
AcDbEntity
  8
0
 62
     7
100
AcDbLine
 10
144.6575437660018
 20
106.5303702588148
 30
0.0
 11
182.6575437660018
 21
106.5303702588148
 31
0.0
  0
LINE
  5
559
330
22
100
AcDbEntity
  8
0
 62
     7
100
AcDbLine
 10
182.6575437660018
 20
131.5303702588149
 30
0.0
 11
182.6575437660018
 21
106.5303702588148
 31
0.0
  0
LINE
  5
55A
330
22
100
AcDbEntity
  8
0
 62
     7
100
AcDbLine
 10
144.6575437660018
 20
131.5303702588148
 30
0.0
 11
147.5575437660018
 21
131.5303702588148
 31
0.0
  0
LINE
  5
55B
330
22
100
AcDbEntity
  8
0
 62
     7
100
AcDbLine
 10
151.7575437660019
 20
131.5303702588148
 30
0.0
 11
161.5575437660018
 21
131.5303702588149
 31
0.0
  0
LINE
  5
55C
330
22
100
AcDbEntity
  8
0
 62
     7
100
AcDbLine
 10
165.7575437660018
 20
131.5303702588149
 30
0.0
 11
175.5575437660018
 21
131.5303702588148
 31
0.0
  0
LINE
  5
55D
330
22
100
AcDbEntity
  8
0
 62
     7
100
AcDbLine
 10
179.757543766002
 20
131.5303702588149
 30
0.0
 11
182.6575437660018
 21
131.5303702588149
 31
0.0
  0
LINE
  5
55E
330
22
100
AcDbEntity
  8
0
 62
     7
100
AcDbLine
 10
144.6575437660018
 20
131.5303702588148
 30
0.0
 11
144.6575437660018
 21
106.5303702588148
 31
0.0
  0
LINE
  5
55F
330
22
100
AcDbEntity
  8
0
 62
     7
100
AcDbLine
 10
222.0922500365229
 20
105.5303702588148
 30
0.0
 11
243.0922500365229
 21
105.5303702588148
 31
0.0
  0
LINE
  5
560
330
22
100
AcDbEntity
  8
0
 62
     7
100
AcDbLine
 10
222.0922500365229
 20
132.5303702588148
 30
0.0
 11
243.0922500365229
 21
132.5303702588148
 31
0.0
  0
LINE
  5
561
330
22
100
AcDbEntity
  8
0
 62
     7
100
AcDbLine
 10
222.0922500365229
 20
132.5303702588148
 30
0.0
 11
222.0922500365229
 21
105.5303702588148
 31
0.0
  0
LINE
  5
562
330
22
100
AcDbEntity
  8
0
 62
     7
100
AcDbLine
 10
243.0922500365229
 20
132.5303702588148
 30
0.0
 11
243.0922500365229
 21
105.5303702588148
 31
0.0
  0
TEXT
  5
563
330
22
100
AcDbEntity
  8
SUNPOU
 62
     7
100
AcDbText
 10
223.793705787446
 20
203.483755767596
 30
0.0
 40
3.5
  1
端子
  7
KANJI
100
AcDbText
  0
LINE
  5
567
330
22
100
AcDbEntity
  8
0
  6
ByBlock
 62
     7
100
AcDbLine
 10
183.6575437660018
 20
105.1970369254815
 30
0.0
 11
183.6575437660018
 21
86.25085113832325
 31
0.0
  0
LINE
  5
568
330
22
100
AcDbEntity
  8
0
  6
ByBlock
 62
     7
100
AcDbLine
 10
143.6575437660018
 20
105.1970369254815
 30
0.0
 11
143.6575437660018
 21
86.25085113832325
 31
0.0
  0
LINE
  5
569
330
22
100
AcDbEntity
  8
0
  6
ByBlock
 62
     7
100
AcDbLine
 10
182.4075437660018
 20
87.50085113832325
 30
0.0
 11
144.9075437660018
 21
87.50085113832325
 31
0.0
  0
INSERT
  5
56A
330
22
100
AcDbEntity
  8
0
  6
ByBlock
 62
     7
100
AcDbBlockReference
  2
_OPEN
 10
183.6575437660018
 20
87.50085113832325
 30
0.0
 41
1.25
 42
1.25
 43
1.25
  0
INSERT
  5
56B
330
22
100
AcDbEntity
  8
0
  6
ByBlock
 62
     7
100
AcDbBlockReference
  2
_OPEN
 10
143.6575437660018
 20
87.50085113832325
 30
0.0
 41
1.25
 42
1.25
 43
1.25
 50
180.0
  0
MTEXT
  5
56C
330
22
100
AcDbEntity
  8
0
  6
ByBlock
 62
     7
100
AcDbMText
 10
163.6575437660018
 20
89.16751780498991
 30
0.0
 40
2.5
 41
0.0
 71
     5
 72
     5
  1
\A1;40
  7
KANJI
 73
     1
 44
1.0
1001
ACAD
1000
MTEXTBEGIN
1070
    73
1070
     1
1070
    44
1040
1.0
1070
    74
1070
     0
1000
MTEXTEND
  0
POINT
  5
56D
330
22
100
AcDbEntity
  8
DEFPOINTS
  6
ByBlock
 62
     7
100
AcDbPoint
 10
183.6575437660018
 20
106.0303702588148
 30
0.0
  0
POINT
  5
56E
330
22
100
AcDbEntity
  8
DEFPOINTS
  6
ByBlock
 62
     7
100
AcDbPoint
 10
143.6575437660018
 20
106.0303702588148
 30
0.0
  0
POINT
  5
56F
330
22
100
AcDbEntity
  8
DEFPOINTS
  6
ByBlock
 62
     7
100
AcDbPoint
 10
143.6575437660018
 20
87.50085113832325
 30
0.0
  0
LINE
  5
570
330
22
100
AcDbEntity
  8
0
  6
ByBlock
 62
     7
100
AcDbLine
 10
183.9908770993351
 20
132.5303702588148
 30
0.0
 11
195.5251230397961
 21
132.5303702588148
 31
0.0
  0
LINE
  5
571
330
22
100
AcDbEntity
  8
0
  6
ByBlock
 62
     7
100
AcDbLine
 10
183.9908770993351
 20
105.5303702588148
 30
0.0
 11
195.5251230397961
 21
105.5303702588148
 31
0.0
  0
LINE
  5
572
330
22
100
AcDbEntity
  8
0
  6
ByBlock
 62
     7
100
AcDbLine
 10
194.2751230397961
 20
131.2803702588148
 30
0.0
 11
194.2751230397961
 21
106.7803702588149
 31
0.0
  0
INSERT
  5
573
330
22
100
AcDbEntity
  8
0
  6
ByBlock
 62
     7
100
AcDbBlockReference
  2
_OPEN
 10
194.2751230397961
 20
132.5303702588148
 30
0.0
 41
1.25
 42
1.25
 43
1.25
 50
90.0
  0
INSERT
  5
574
330
22
100
AcDbEntity
  8
0
  6
ByBlock
 62
     7
100
AcDbBlockReference
  2
_OPEN
 10
194.2751230397961
 20
105.5303702588148
 30
0.0
 41
1.25
 42
1.25
 43
1.25
 50
270.0
  0
MTEXT
  5
575
330
22
100
AcDbEntity
  8
0
  6
ByBlock
 62
     7
100
AcDbMText
 10
192.6084563731295
 20
119.0303702588148
 30
0.0
 40
2.5
 41
0.0
 71
     5
 72
     5
  1
\A1;27
  7
KANJI
 11
0.0
 21
1.0
 31
0.0
 73
     1
 44
1.0
1001
ACAD
1000
MTEXTBEGIN
1070
    73
1070
     1
1070
    44
1040
1.0
1070
    74
1070
     0
1000
MTEXTEND
  0
POINT
  5
576
330
22
100
AcDbEntity
  8
DEFPOINTS
  6
ByBlock
 62
     7
100
AcDbPoint
 10
183.1575437660018
 20
105.5303702588148
 30
0.0
  0
POINT
  5
577
330
22
100
AcDbEntity
  8
DEFPOINTS
  6
ByBlock
 62
     7
100
AcDbPoint
 10
194.2751230397961
 20
105.5303702588148
 30
0.0
  0
LINE
  5
57A
330
22
100
AcDbEntity
  8
0
  6
ByBlock
 62
     7
100
AcDbLine
 10
184.4908770993351
 20
183.679994975445
 30
0.0
 11
195.5251230397961
 21
183.679994975445
 31
0.0
  0
POINT
  5
57B
330
22
100
AcDbEntity
  8
DEFPOINTS
  6
ByBlock
 62
     7
100
AcDbPoint
 10
183.6575437660018
 20
183.679994975445
 30
0.0
  0
LINE
  5
57C
330
22
100
AcDbEntity
  8
0
  6
ByBlock
 62
     7
100
AcDbLine
 10
184.4908770993351
 20
183.679994975445
 30
0.0
 11
195.5251230397961
 21
183.679994975445
 31
0.0
  0
LINE
  5
57D
330
22
100
AcDbEntity
  8
0
  6
ByBlock
 62
     7
100
AcDbLine
 10
184.4908770993351
 20
204.679994975445
 30
0.0
 11
195.5251230397961
 21
204.679994975445
 31
0.0
  0
LINE
  5
57E
330
22
100
AcDbEntity
  8
0
  6
ByBlock
 62
     7
100
AcDbLine
 10
194.2751230397961
 20
184.9299949754449
 30
0.0
 11
194.2751230397961
 21
203.429994975445
 31
0.0
  0
INSERT
  5
57F
330
22
100
AcDbEntity
  8
0
  6
ByBlock
 62
     7
100
AcDbBlockReference
  2
_OPEN
 10
194.2751230397961
 20
183.679994975445
 30
0.0
 41
1.25
 42
1.25
 43
1.25
 50
270.0
  0
INSERT
  5
580
330
22
100
AcDbEntity
  8
0
  6
ByBlock
 62
     7
100
AcDbBlockReference
  2
_OPEN
 10
194.2751230397961
 20
204.679994975445
 30
0.0
 41
1.25
 42
1.25
 43
1.25
 50
90.0
  0
MTEXT
  5
581
330
22
100
AcDbEntity
  8
0
  6
ByBlock
 62
     7
100
AcDbMText
 10
192.6084563731295
 20
194.1799949754449
 30
0.0
 40
2.5
 41
0.0
 71
     5
 72
     5
  1
\A1;21
  7
KANJI
 11
0.0
 21
1.0
 31
0.0
 73
     1
 44
1.0
1001
ACAD
1000
MTEXTBEGIN
1070
    73
1070
     1
1070
    44
1040
1.0
1070
    74
1070
     0
1000
MTEXTEND
  0
POINT
  5
582
330
22
100
AcDbEntity
  8
DEFPOINTS
  6
ByBlock
 62
     7
100
AcDbPoint
 10
183.6575437660018
 20
183.679994975445
 30
0.0
  0
POINT
  5
583
330
22
100
AcDbEntity
  8
DEFPOINTS
  6
ByBlock
 62
     7
100
AcDbPoint
 10
183.6575437660018
 20
204.679994975445
 30
0.0
  0
POINT
  5
584
330
22
100
AcDbEntity
  8
DEFPOINTS
  6
ByBlock
 62
     7
100
AcDbPoint
 10
194.2751230397961
 20
204.679994975445
 30
0.0
  0
POINT
  5
585
330
22
100
AcDbEntity
  8
DEFPOINTS
  6
ByBlock
 62
     7
100
AcDbPoint
 10
183.6575437660018
 20
183.679994975445
 30
0.0
  0
LINE
  5
587
330
22
100
AcDbEntity
  8
0
 62
     7
100
AcDbLine
 10
144.1575437660018
 20
132.5303702588148
 30
0.0
 11
146.1575437660019
 21
132.5303702588149
 31
0.0
  0
LINE
  5
588
330
22
100
AcDbEntity
  8
0
 62
     7
100
AcDbLine
 10
153.1575437660019
 20
132.5303702588149
 30
0.0
 11
160.1575437660019
 21
132.5303702588149
 31
0.0
  0
LINE
  5
589
330
22
100
AcDbEntity
  8
0
 62
     7
100
AcDbLine
 10
167.1575437660018
 20
132.5303702588149
 30
0.0
 11
174.1575437660018
 21
132.5303702588149
 31
0.0
  0
LINE
  5
58A
330
22
100
AcDbEntity
  8
0
 62
     7
100
AcDbLine
 10
181.157543766002
 20
132.5303702588149
 30
0.0
 11
183.1575437660018
 21
132.5303702588149
 31
0.0
  0
ARC
  5
58B
330
22
100
AcDbEntity
  8
0
 62
     7
100
AcDbCircle
 10
183.1575437660018
 20
132.0303702588149
 30
0.0
 40
0.5
100
AcDbArc
 50
0.0
 51
90.0
  0
ARC
  5
58C
330
22
100
AcDbEntity
  8
0
 62
     7
100
AcDbCircle
 10
144.1575437660018
 20
132.0303702588148
 30
0.0
 40
0.5
100
AcDbArc
 50
90.0
 51
180.0
  0
LINE
  5
58D
330
22
100
AcDbEntity
  8
0
100
AcDbLine
 10
230.8856087660752
 20
199.4445858345313
 30
0.0
 11
230.8856087660753
 21
190.1445858345313
 31
0.0
  0
LINE
  5
58E
330
22
100
AcDbEntity
  8
0
100
AcDbLine
 10
223.8856087660752
 20
199.4445858345313
 30
0.0
 11
223.8856087660753
 21
190.1445858345313
 31
0.0
  0
LINE
  5
58F
330
22
100
AcDbEntity
  8
0
100
AcDbLine
 10
229.8856087660752
 20
200.4445858345313
 30
0.0
 11
224.8856087660751
 21
200.4445858345313
 31
0.0
  0
ARC
  5
590
330
22
100
AcDbEntity
  8
0
100
AcDbCircle
 10
224.8856087660751
 20
199.4445858345313
 30
0.0
 40
1.0
100
AcDbArc
 50
90.0
 51
180.0
  0
ARC
  5
591
330
22
100
AcDbEntity
  8
0
100
AcDbCircle
 10
229.8856087660752
 20
199.4445858345313
 30
0.0
 40
1.0
100
AcDbArc
 50
0.0
 51
90.0
  0
ARC
  5
592
330
22
100
AcDbEntity
  8
0
100
AcDbCircle
 10
227.3856087660754
 20
193.3445858345312
 30
0.0
 40
2.1
100
AcDbArc
 50
0.0
 51
180.0
  0
LINE
  5
593
330
22
100
AcDbEntity
  8
0
100
AcDbLine
 10
229.4856087660753
 20
190.1445858345313
 30
0.0
 11
229.4856087660752
 21
193.3445858345312
 31
0.0
  0
LINE
  5
594
330
22
100
AcDbEntity
  8
0
100
AcDbLine
 10
225.2856087660753
 20
190.1445858345313
 30
0.0
 11
225.2856087660751
 21
193.3445858345312
 31
0.0
  0
LINE
  5
595
330
22
100
AcDbEntity
  8
0
100
AcDbLine
 10
227.3856087660753
 20
194.0658397787931
 30
0.0
 11
227.3856087660753
 21
192.6233318902697
 31
0.0
  0
LINE
  5
596
330
22
100
AcDbEntity
  8
0
100
AcDbLine
 10
228.1068627103369
 20
193.3445858345314
 30
0.0
 11
226.6643548218136
 21
193.3445858345314
 31
0.0
  0
ARC
  5
597
330
22
100
AcDbEntity
  8
0
100
AcDbCircle
 10
230.1856087660753
 20
190.1445858345313
 30
0.0
 40
0.6999999999999318
100
AcDbArc
 50
180.0
 51
0.0
  0
ARC
  5
598
330
22
100
AcDbEntity
  8
0
100
AcDbCircle
 10
224.5856087660751
 20
190.1445858345313
 30
0.0
 40
0.6999999999999318
100
AcDbArc
 50
180.0
 51
0.0
  0
LINE
  5
599
330
22
100
AcDbEntity
  8
0
100
AcDbLine
 10
167.1575437660018
 20
182.679994975445
 30
0.0
 11
167.1575437660019
 21
173.379994975445
 31
0.0
  0
LINE
  5
59A
330
22
100
AcDbEntity
  8
0
100
AcDbLine
 10
160.1575437660018
 20
182.679994975445
 30
0.0
 11
160.1575437660019
 21
173.379994975445
 31
0.0
  0
LINE
  5
59B
330
22
100
AcDbEntity
  8
0
100
AcDbLine
 10
166.1575437660018
 20
183.679994975445
 30
0.0
 11
161.1575437660018
 21
183.679994975445
 31
0.0
  0
ARC
  5
59C
330
22
100
AcDbEntity
  8
0
100
AcDbCircle
 10
161.1575437660018
 20
182.679994975445
 30
0.0
 40
1.0
100
AcDbArc
 50
90.0
 51
180.0
  0
ARC
  5
59D
330
22
100
AcDbEntity
  8
0
100
AcDbCircle
 10
166.1575437660018
 20
182.679994975445
 30
0.0
 40
1.0
100
AcDbArc
 50
0.0
 51
90.0
  0
ARC
  5
59E
330
22
100
AcDbEntity
  8
0
100
AcDbCircle
 10
163.657543766002
 20
176.5799949754448
 30
0.0
 40
2.1
100
AcDbArc
 50
0.0
 51
180.0
  0
LINE
  5
59F
330
22
100
AcDbEntity
  8
0
100
AcDbLine
 10
165.7575437660019
 20
173.379994975445
 30
0.0
 11
165.7575437660018
 21
176.5799949754448
 31
0.0
  0
LINE
  5
5A0
330
22
100
AcDbEntity
  8
0
100
AcDbLine
 10
161.5575437660019
 20
173.379994975445
 30
0.0
 11
161.5575437660017
 21
176.5799949754448
 31
0.0
  0
LINE
  5
5A1
330
22
100
AcDbEntity
  8
0
100
AcDbLine
 10
163.6575437660019
 20
177.3012489197067
 30
0.0
 11
163.6575437660019
 21
175.8587410311834
 31
0.0
  0
LINE
  5
5A2
330
22
100
AcDbEntity
  8
0
100
AcDbLine
 10
164.3787977102636
 20
176.579994975445
 30
0.0
 11
162.9362898217403
 21
176.579994975445
 31
0.0
  0
ARC
  5
5A3
330
22
100
AcDbEntity
  8
0
100
AcDbCircle
 10
166.4575437660018
 20
173.379994975445
 30
0.0
 40
0.6999999999999318
100
AcDbArc
 50
180.0
 51
0.0
  0
ARC
  5
5A4
330
22
100
AcDbEntity
  8
0
100
AcDbCircle
 10
160.8575437660016
 20
173.379994975445
 30
0.0
 40
0.6999999999999318
100
AcDbArc
 50
180.0
 51
0.0
  0
LINE
  5
5A5
330
22
100
AcDbEntity
  8
0
100
AcDbLine
 10
153.1575437660018
 20
182.6799949754447
 30
0.0
 11
153.1575437660019
 21
173.3799949754448
 31
0.0
  0
LINE
  5
5A6
330
22
100
AcDbEntity
  8
0
100
AcDbLine
 10
146.1575437660018
 20
182.6799949754447
 30
0.0
 11
146.1575437660019
 21
173.3799949754448
 31
0.0
  0
LINE
  5
5A7
330
22
100
AcDbEntity
  8
0
100
AcDbLine
 10
152.1575437660018
 20
183.6799949754447
 30
0.0
 11
147.1575437660018
 21
183.6799949754447
 31
0.0
  0
ARC
  5
5A8
330
22
100
AcDbEntity
  8
0
100
AcDbCircle
 10
147.1575437660018
 20
182.6799949754447
 30
0.0
 40
1.0
100
AcDbArc
 50
90.0
 51
180.0
  0
ARC
  5
5A9
330
22
100
AcDbEntity
  8
0
100
AcDbCircle
 10
152.1575437660018
 20
182.6799949754447
 30
0.0
 40
1.0
100
AcDbArc
 50
0.0
 51
90.0
  0
ARC
  5
5AA
330
22
100
AcDbEntity
  8
0
100
AcDbCircle
 10
149.657543766002
 20
176.5799949754446
 30
0.0
 40
2.1
100
AcDbArc
 50
0.0
 51
180.0
  0
LINE
  5
5AB
330
22
100
AcDbEntity
  8
0
100
AcDbLine
 10
151.7575437660019
 20
173.3799949754448
 30
0.0
 11
151.7575437660018
 21
176.5799949754446
 31
0.0
  0
LINE
  5
5AC
330
22
100
AcDbEntity
  8
0
100
AcDbLine
 10
147.5575437660019
 20
173.3799949754448
 30
0.0
 11
147.5575437660017
 21
176.5799949754446
 31
0.0
  0
LINE
  5
5AD
330
22
100
AcDbEntity
  8
0
100
AcDbLine
 10
149.6575437660019
 20
177.3012489197065
 30
0.0
 11
149.6575437660019
 21
175.8587410311831
 31
0.0
  0
LINE
  5
5AE
330
22
100
AcDbEntity
  8
0
100
AcDbLine
 10
150.3787977102636
 20
176.5799949754448
 30
0.0
 11
148.9362898217402
 21
176.5799949754448
 31
0.0
  0
ARC
  5
5AF
330
22
100
AcDbEntity
  8
0
100
AcDbCircle
 10
152.4575437660018
 20
173.3799949754448
 30
0.0
 40
0.6999999999999318
100
AcDbArc
 50
180.0
 51
0.0
  0
ARC
  5
5B0
330
22
100
AcDbEntity
  8
0
100
AcDbCircle
 10
146.8575437660016
 20
173.3799949754448
 30
0.0
 40
0.6999999999999318
100
AcDbArc
 50
180.0
 51
0.0
  0
LINE
  5
5B1
330
22
100
AcDbEntity
  8
0
100
AcDbLine
 10
181.1575437660019
 20
182.679994975445
 30
0.0
 11
181.157543766002
 21
173.379994975445
 31
0.0
  0
LINE
  5
5B2
330
22
100
AcDbEntity
  8
0
100
AcDbLine
 10
174.1575437660018
 20
182.679994975445
 30
0.0
 11
174.157543766002
 21
173.379994975445
 31
0.0
  0
LINE
  5
5B3
330
22
100
AcDbEntity
  8
0
100
AcDbLine
 10
180.1575437660019
 20
183.679994975445
 30
0.0
 11
175.1575437660019
 21
183.679994975445
 31
0.0
  0
ARC
  5
5B4
330
22
100
AcDbEntity
  8
0
100
AcDbCircle
 10
175.1575437660019
 20
182.679994975445
 30
0.0
 40
1.0
100
AcDbArc
 50
90.0
 51
180.0
  0
ARC
  5
5B5
330
22
100
AcDbEntity
  8
0
100
AcDbCircle
 10
180.1575437660019
 20
182.679994975445
 30
0.0
 40
1.0
100
AcDbArc
 50
0.0
 51
90.0
  0
ARC
  5
5B6
330
22
100
AcDbEntity
  8
0
100
AcDbCircle
 10
177.6575437660021
 20
176.5799949754448
 30
0.0
 40
2.1
100
AcDbArc
 50
0.0
 51
180.0
  0
LINE
  5
5B7
330
22
100
AcDbEntity
  8
0
100
AcDbLine
 10
179.757543766002
 20
173.379994975445
 30
0.0
 11
179.7575437660019
 21
176.5799949754448
 31
0.0
  0
LINE
  5
5B8
330
22
100
AcDbEntity
  8
0
100
AcDbLine
 10
175.557543766002
 20
173.379994975445
 30
0.0
 11
175.5575437660018
 21
176.5799949754448
 31
0.0
  0
LINE
  5
5B9
330
22
100
AcDbEntity
  8
0
100
AcDbLine
 10
177.657543766002
 20
177.3012489197067
 30
0.0
 11
177.657543766002
 21
175.8587410311834
 31
0.0
  0
LINE
  5
5BA
330
22
100
AcDbEntity
  8
0
100
AcDbLine
 10
178.3787977102637
 20
176.579994975445
 30
0.0
 11
176.9362898217404
 21
176.579994975445
 31
0.0
  0
ARC
  5
5BB
330
22
100
AcDbEntity
  8
0
100
AcDbCircle
 10
180.457543766002
 20
173.379994975445
 30
0.0
 40
0.6999999999999318
100
AcDbArc
 50
180.0
 51
0.0
  0
ARC
  5
5BC
330
22
100
AcDbEntity
  8
0
100
AcDbCircle
 10
174.8575437660018
 20
173.379994975445
 30
0.0
 40
0.6999999999999318
100
AcDbArc
 50
180.0
 51
0.0
  0
LINE
  5
5BD
330
22
100
AcDbEntity
  8
0
100
AcDbLine
 10
221.5922500365228
 20
133.0303702588148
 30
0.0
 11
212.0922500365231
 21
133.0303702588148
 31
0.0
  0
LINE
  5
5BE
330
22
100
AcDbEntity
  8
0
100
AcDbLine
 10
221.2922500365229
 20
132.2303702588148
 30
0.0
 11
212.0922500365231
 21
132.2303702588148
 31
0.0
  0
LINE
  5
5BF
330
22
100
AcDbEntity
  8
0
100
AcDbLine
 10
212.0922500365231
 20
133.0303702588148
 30
0.0
 11
212.0922500365231
 21
132.2303702588148
 31
0.0
  0
LINE
  5
5C0
330
22
100
AcDbEntity
  8
0
100
AcDbLine
 10
222.0922500365229
 20
131.5303702588147
 30
0.0
 11
222.0922500365229
 21
131.5303702588147
 31
0.0
  0
ARC
  5
5C1
330
22
100
AcDbEntity
  8
0
100
AcDbCircle
 10
221.5922500365228
 20
132.5303702588148
 30
0.0
 40
0.5
100
AcDbArc
 50
0.0
 51
90.0
  0
LINE
  5
5C2
330
22
100
AcDbEntity
  8
0
100
AcDbLine
 10
222.0922500365229
 20
131.5303702588147
 30
0.0
 11
222.0922500365229
 21
131.5303702588147
 31
0.0
  0
ARC
  5
5C3
330
22
100
AcDbEntity
  8
0
100
AcDbCircle
 10
221.7922500365231
 20
131.2303702588146
 30
0.0
 40
0.5
100
AcDbArc
 50
180.0
 51
270.0
  0
LINE
  5
5C4
330
22
100
AcDbEntity
  8
0
100
AcDbLine
 10
221.2922500365227
 20
132.2303702588148
 30
0.0
 11
221.2922500365231
 21
131.2303702588146
 31
0.0
  0
LINE
  5
5C5
330
22
100
AcDbEntity
  8
0
100
AcDbLine
 10
222.0922500365229
 20
132.5303702588148
 30
0.0
 11
222.0922500365229
 21
131.5303702588147
 31
0.0
  0
LINE
  5
5C6
330
22
100
AcDbEntity
  8
画層1
100
AcDbLine
 10
221.7922500365231
 20
130.7303702588146
 30
0.0
 11
222.0922500365229
 21
130.7303702588146
 31
0.0
  0
LINE
  5
5C7
330
22
100
AcDbEntity
  8
画層1
100
AcDbLine
 10
146.1575437660019
 20
133.0303702588148
 30
0.0
 11
146.1575437660019
 21
132.2303702588148
 31
0.0
  0
LINE
  5
5C8
330
22
100
AcDbEntity
  8
画層1
100
AcDbLine
 10
153.1575437660019
 20
133.0303702588149
 30
0.0
 11
153.1575437660019
 21
132.2303702588148
 31
0.0
  0
LINE
  5
5C9
330
22
100
AcDbEntity
  8
0
 62
     7
100
AcDbLine
 10
146.1575437660019
 20
133.0303702588148
 30
0.0
 11
153.1575437660019
 21
133.0303702588149
 31
0.0
  0
LINE
  5
5CA
330
22
100
AcDbEntity
  8
画層1
100
AcDbLine
 10
147.5575437660018
 20
133.0303702588148
 30
0.0
 11
147.5575437660018
 21
132.2303702588148
 31
0.0
  0
LINE
  5
5CB
330
22
100
AcDbEntity
  8
画層1
100
AcDbLine
 10
151.7575437660019
 20
133.0303702588149
 30
0.0
 11
151.7575437660019
 21
132.2303702588148
 31
0.0
  0
LINE
  5
5CC
330
22
100
AcDbEntity
  8
0
 62
     7
100
AcDbLine
 10
146.1575437660019
 20
132.2303702588148
 30
0.0
 11
153.1575437660019
 21
132.2303702588148
 31
0.0
  0
LINE
  5
5CD
330
22
100
AcDbEntity
  8
画層1
100
AcDbLine
 10
151.7575437660019
 20
130.7303702588146
 30
0.0
 11
147.5575437660018
 21
130.7303702588146
 31
0.0
  0
LINE
  5
5CE
330
22
100
AcDbEntity
  8
画層1
100
AcDbLine
 10
147.5575437660018
 20
132.2303702588148
 30
0.0
 11
147.5575437660018
 21
130.7303702588146
 31
0.0
  0
LINE
  5
5CF
330
22
100
AcDbEntity
  8
画層1
100
AcDbLine
 10
151.7575437660019
 20
132.2303702588148
 30
0.0
 11
151.7575437660019
 21
130.7303702588146
 31
0.0
  0
LINE
  5
5D0
330
22
100
AcDbEntity
  8
画層1
100
AcDbLine
 10
160.1575437660019
 20
133.0303702588148
 30
0.0
 11
160.1575437660019
 21
132.2303702588148
 31
0.0
  0
LINE
  5
5D1
330
22
100
AcDbEntity
  8
画層1
100
AcDbLine
 10
167.1575437660019
 20
133.0303702588149
 30
0.0
 11
167.1575437660019
 21
132.2303702588148
 31
0.0
  0
LINE
  5
5D2
330
22
100
AcDbEntity
  8
0
 62
     7
100
AcDbLine
 10
160.1575437660019
 20
133.0303702588148
 30
0.0
 11
167.1575437660019
 21
133.0303702588149
 31
0.0
  0
LINE
  5
5D3
330
22
100
AcDbEntity
  8
画層1
100
AcDbLine
 10
161.5575437660018
 20
133.0303702588148
 30
0.0
 11
161.5575437660018
 21
132.2303702588148
 31
0.0
  0
LINE
  5
5D4
330
22
100
AcDbEntity
  8
画層1
100
AcDbLine
 10
165.7575437660019
 20
133.0303702588149
 30
0.0
 11
165.7575437660018
 21
132.2303702588148
 31
0.0
  0
LINE
  5
5D5
330
22
100
AcDbEntity
  8
0
 62
     7
100
AcDbLine
 10
160.1575437660019
 20
132.2303702588148
 30
0.0
 11
167.1575437660019
 21
132.2303702588148
 31
0.0
  0
LINE
  5
5D6
330
22
100
AcDbEntity
  8
画層1
100
AcDbLine
 10
165.7575437660018
 20
130.7303702588146
 30
0.0
 11
161.5575437660018
 21
130.7303702588146
 31
0.0
  0
LINE
  5
5D7
330
22
100
AcDbEntity
  8
画層1
100
AcDbLine
 10
161.5575437660018
 20
132.2303702588148
 30
0.0
 11
161.5575437660018
 21
130.7303702588146
 31
0.0
  0
LINE
  5
5D8
330
22
100
AcDbEntity
  8
画層1
100
AcDbLine
 10
165.7575437660018
 20
132.2303702588148
 30
0.0
 11
165.7575437660019
 21
130.7303702588146
 31
0.0
  0
LINE
  5
5D9
330
22
100
AcDbEntity
  8
画層1
100
AcDbLine
 10
174.157543766002
 20
133.0303702588148
 30
0.0
 11
174.157543766002
 21
132.2303702588148
 31
0.0
  0
LINE
  5
5DA
330
22
100
AcDbEntity
  8
画層1
100
AcDbLine
 10
181.157543766002
 20
133.0303702588149
 30
0.0
 11
181.157543766002
 21
132.2303702588148
 31
0.0
  0
LINE
  5
5DB
330
22
100
AcDbEntity
  8
0
 62
     7
100
AcDbLine
 10
174.157543766002
 20
133.0303702588148
 30
0.0
 11
181.157543766002
 21
133.0303702588149
 31
0.0
  0
LINE
  5
5DC
330
22
100
AcDbEntity
  8
画層1
100
AcDbLine
 10
175.5575437660018
 20
133.0303702588148
 30
0.0
 11
175.5575437660018
 21
132.2303702588148
 31
0.0
  0
LINE
  5
5DD
330
22
100
AcDbEntity
  8
画層1
100
AcDbLine
 10
179.757543766002
 20
133.0303702588149
 30
0.0
 11
179.757543766002
 21
132.2303702588148
 31
0.0
  0
LINE
  5
5DE
330
22
100
AcDbEntity
  8
0
 62
     7
100
AcDbLine
 10
174.157543766002
 20
132.2303702588148
 30
0.0
 11
181.157543766002
 21
132.2303702588148
 31
0.0
  0
LINE
  5
5DF
330
22
100
AcDbEntity
  8
画層1
100
AcDbLine
 10
179.757543766002
 20
130.7303702588146
 30
0.0
 11
175.5575437660018
 21
130.7303702588146
 31
0.0
  0
LINE
  5
5E0
330
22
100
AcDbEntity
  8
画層1
100
AcDbLine
 10
175.5575437660018
 20
132.2303702588148
 30
0.0
 11
175.5575437660018
 21
130.7303702588146
 31
0.0
  0
LINE
  5
5E1
330
22
100
AcDbEntity
  8
画層1
100
AcDbLine
 10
179.757543766002
 20
132.2303702588148
 30
0.0
 11
179.757543766002
 21
130.7303702588146
 31
0.0
  0
DIMENSION
  5
5E2
330
22
100
AcDbEntity
  8
画層1
100
AcDbDimension
  2
*D8
 10
230.8856087660753
 20
178.3819149524165
 30
0.0
 11
227.3856087660753
 21
180.0485816190831
 31
0.0
 70
    32
 71
     5
 42
7.000000000000111
  3
MYCADR13
100
AcDbAlignedDimension
 13
223.8856087660752
 23
190.1445858345313
 33
0.0
 14
230.8856087660753
 24
190.1445858345315
 34
0.0
100
AcDbRotatedDimension
1001
ACAD
1000
DSTYLE
1002
{
1070
    40
1040
0.8333333333333332
1070
    47
1040
1.0
1070
    48
1040
1.0
1070
   146
1040
1.0
1070
   147
1040
0.5
1070
   284
1070
     8
1070
   340
1005
4A5
1070
   341
1005
0
1002
}
  0
DIMENSION
  5
5E3
330
22
100
AcDbEntity
  8
画層1
100
AcDbDimension
  2
*D9
 10
220.0111977264661
 20
195.4445858345312
 30
0.0
 11
218.3445310597994
 21
192.4445858345314
 31
0.0
 70
    32
 71
     5
 42
5.999999999999743
  3
MYCADR13
100
AcDbAlignedDimension
 13
224.5856087660751
 23
189.4445858345314
 33
0.0
 14
227.3856087660754
 24
195.4445858345312
 34
0.0
 50
90.0
100
AcDbRotatedDimension
1001
ACAD
1000
DSTYLE
1002
{
1070
    40
1040
0.8333333333333332
1070
    47
1040
1.0
1070
    48
1040
1.0
1070
   146
1040
1.0
1070
   147
1040
0.5
1070
   284
1070
     8
1070
   340
1005
4A5
1070
   341
1005
0
1002
}
  0
DIMENSION
  5
5E4
330
22
100
AcDbEntity
  8
画層1
100
AcDbDimension
  2
*D10
 10
229.4856087660753
 20
185.4149337508332
 30
0.0
 11
220.8730792017222
 21
185.4149337508332
 31
0.0
 70
   160
 71
     5
 42
4.200000000000044
  3
MYCADR13
100
AcDbAlignedDimension
 13
225.2856087660753
 23
190.1445858345314
 33
0.0
 14
229.4856087660753
 24
190.1445858345315
 34
0.0
100
AcDbRotatedDimension
1001
ACAD
1000
DSTYLE
1002
{
1070
    74
1070
     0
1070
    40
1040
0.8333333333333332
1070
    47
1040
1.0
1070
    48
1040
1.0
1070
   146
1040
1.0
1070
   147
1040
0.5
1070
   284
1070
     8
1070
   340
1005
4A5
1070
   341
1005
0
1002
}
  0
DIMENSION
  5
5E5
330
22
100
AcDbEntity
  8
画層1
370
    -3
100
AcDbDimension
  2
*D11
 10
163.6575437660019
 20
163.8928367446613
 30
0.0
 11
170.657543766002
 21
165.5595034113279
 31
0.0
 70
    32
 71
     5
 42
14.00000000000011
  3
MYCADR13
100
AcDbAlignedDimension
 13
177.657543766002
 23
176.8587410311834
 33
0.0
 14
163.6575437660019
 24
176.8587410311834
 34
0.0
100
AcDbRotatedDimension
1001
ACAD
1000
DSTYLE
1002
{
1070
    40
1040
0.8333333333333332
1070
    47
1040
1.0
1070
    48
1040
1.0
1070
   146
1040
1.0
1070
   147
1040
0.5
1070
   284
1070
     8
1070
   340
1005
4A5
1070
   341
1005
0
1002
}
  0
DIMENSION
  5
5E6
330
22
100
AcDbEntity
  8
画層1
370
    -3
100
AcDbDimension
  2
*D12
 10
163.6575437660019
 20
163.8928367446613
 30
0.0
 11
156.6575437660019
 21
165.5595034113279
 31
0.0
 70
    32
 71
     5
 42
14.0
  3
MYCADR13
100
AcDbAlignedDimension
 13
149.6575437660019
 23
176.8587410311831
 33
0.0
 14
163.6575437660019
 24
176.8587410311831
 34
0.0
100
AcDbRotatedDimension
1001
ACAD
1000
DSTYLE
1002
{
1070
    40
1040
0.8333333333333332
1070
    47
1040
1.0
1070
    48
1040
1.0
1070
   146
1040
1.0
1070
   147
1040
0.5
1070
   284
1070
     8
1070
   340
1005
4A5
1070
   341
1005
0
1002
}
  0
DIMENSION
  5
5E7
330
22
100
AcDbEntity
  8
画層1
370
    -3
100
AcDbDimension
  2
*D13
 10
194.2751230397961
 20
183.6799949754449
 30
0.0
 11
192.6084563731295
 21
178.179994975445
 31
0.0
 70
    32
 71
     5
 42
10.99999999999988
  3
MYCADR13
100
AcDbAlignedDimension
 13
180.457543766002
 23
172.6799949754451
 33
0.0
 14
183.6575437660018
 24
183.679994975445
 34
0.0
 50
90.0
100
AcDbRotatedDimension
1001
ACAD
1000
DSTYLE
1002
{
1070
    40
1040
0.8333333333333332
1070
    47
1040
1.0
1070
    48
1040
1.0
1070
   146
1040
1.0
1070
   147
1040
0.5
1070
   284
1070
     8
1070
   340
1005
4A5
1070
   341
1005
0
1002
}
  0
DIMENSION
  5
5E8
330
22
100
AcDbEntity
  8
画層1
370
    -3
100
AcDbDimension
  2
*D14
 10
236.2140009747413
 20
200.4445858345313
 30
0.0
 11
234.5473343080745
 21
194.9445858345314
 31
0.0
 70
    32
 71
     5
 42
10.99999999999988
  3
MYCADR13
100
AcDbAlignedDimension
 13
230.1856087660753
 23
189.4445858345314
 33
0.0
 14
229.8856087660752
 24
200.4445858345313
 34
0.0
 50
90.0
100
AcDbRotatedDimension
1001
ACAD
1000
DSTYLE
1002
{
1070
    40
1040
0.8333333333333332
1070
    47
1040
1.0
1070
    48
1040
1.0
1070
   146
1040
1.0
1070
   147
1040
0.5
1070
   284
1070
     8
1070
   340
1005
4A5
1070
   341
1005
0
1002
}
  0
ENDSEC
  0
SECTION
  2
OBJECTS
  0
DICTIONARY
  5
C
330
0
100
AcDbDictionary
281
     1
  3
ACAD_COLOR
350
1B
  3
ACAD_GROUP
350
D
  3
ACAD_LAYOUT
350
19
  3
ACAD_MATERIAL
350
1A
  3
ACAD_MLINESTYLE
350
16
  3
ACAD_PLOTSETTINGS
350
18
  3
ACAD_PLOTSTYLENAME
350
E
  3
ACAD_TABLESTYLE
350
1C
  3
ACDBHEADERROUNDTRIPXREC
350
6C2
  3
AcDbVariableDictionary
350
6B0
  0
DICTIONARY
  5
1B
102
{ACAD_REACTORS
330
C
102
}
330
C
100
AcDbDictionary
281
     1
  0
DICTIONARY
  5
D
102
{ACAD_REACTORS
330
C
102
}
330
C
100
AcDbDictionary
281
     1
  0
DICTIONARY
  5
19
102
{ACAD_REACTORS
330
C
102
}
330
C
100
AcDbDictionary
281
     1
  3
Model
350
25
  3
レイアウト1
350
21
  0
DICTIONARY
  5
1A
102
{ACAD_REACTORS
330
C
102
}
330
C
100
AcDbDictionary
281
     1
  0
DICTIONARY
  5
16
102
{ACAD_REACTORS
330
C
102
}
330
C
100
AcDbDictionary
281
     1
  3
Standard
350
17
  0
DICTIONARY
  5
18
102
{ACAD_REACTORS
330
C
102
}
330
C
100
AcDbDictionary
281
     1
  0
ACDBDICTIONARYWDFLT
  5
E
102
{ACAD_REACTORS
330
C
102
}
330
C
100
AcDbDictionary
281
     1
  3
Normal
350
F
100
AcDbDictionaryWithDefault
340
F
  0
DICTIONARY
  5
1C
102
{ACAD_REACTORS
330
C
102
}
330
C
100
AcDbDictionary
281
     1
  3
Standard
350
1D
  0
DICTIONARY
  5
6C2
102
{ACAD_REACTORS
330
C
102
}
330
C
100
AcDbDictionary
281
     1
  0
DICTIONARY
  5
6B0
102
{ACAD_REACTORS
330
C
102
}
330
C
100
AcDbDictionary
281
     1
  3
CTABLESTYLE
350
6B1
  3
DIMASSOC
350
6B2
  3
PROJECTNAME
350
6B3
  0
LAYOUT
  5
25
102
{ACAD_XDICTIONARY
360
6C5
102
}
102
{ACAD_REACTORS
330
19
102
}
330
19
100
AcDbPlotSettings
  1

  2
Microsoft XPS Document Writer
  4

  6

 40
0.0
 41
0.0
 42
0.0
 43
0.0
 44
0.0
 45
0.0
 46
0.0
 47
0.0
 48
0.0
 49
0.0
140
0.0
141
0.0
142
1.0
143
1.0
 70
  1712
 72
     0
 73
     0
 74
     0
  7

 75
     0
147
1.0
148
0.0
149
0.0
100
AcDbLayout
  1
Model
 70
     1
 71
     0
 10
0.0
 20
0.0
 11
12.0
 21
9.0
 12
0.0
 22
0.0
 32
0.0
 14
0.0
 24
0.0
 34
0.0
 15
0.0
 25
0.0
 35
0.0
146
0.0
 13
0.0
 23
0.0
 33
0.0
 16
1.0
 26
0.0
 36
0.0
 17
0.0
 27
1.0
 37
0.0
 76
     0
330
22
  0
LAYOUT
  5
21
102
{ACAD_XDICTIONARY
360
6C3
102
}
102
{ACAD_REACTORS
330
19
102
}
330
19
100
AcDbPlotSettings
  1

  2
Microsoft XPS Document Writer
  4

  6

 40
0.0
 41
0.0
 42
0.0
 43
0.0
 44
0.0
 45
0.0
 46
0.0
 47
0.0
 48
0.0
 49
0.0
140
0.0
141
0.0
142
1.0
143
1.0
 70
   688
 72
     0
 73
     0
 74
     5
  7

 75
    16
147
1.0
148
0.0
149
0.0
100
AcDbLayout
  1
レイアウト1
 70
     1
 71
     1
 10
0.0
 20
0.0
 11
12.0
 21
9.0
 12
0.0
 22
0.0
 32
0.0
 14
1.000000000000000E+20
 24
1.000000000000000E+20
 34
1.000000000000000E+20
 15
-1.000000000000000E+20
 25
-1.000000000000000E+20
 35
-1.000000000000000E+20
146
0.0
 13
0.0
 23
0.0
 33
0.0
 16
1.0
 26
0.0
 36
0.0
 17
0.0
 27
1.0
 37
0.0
 76
     0
330
1E
  0
MLINESTYLE
  5
17
102
{ACAD_REACTORS
330
16
102
}
330
16
100
AcDbMlineStyle
  2
STANDARD
 70
     0
  3

 62
   256
 51
90.0
 52
90.0
 71
     2
 49
0.5
 62
   256
  6
BYLAYER
 49
-0.5
 62
   256
  6
BYLAYER
  0
ACDBPLACEHOLDER
  5
F
102
{ACAD_REACTORS
330
E
102
}
330
E
  0
TABLESTYLE
  5
1D
102
{ACAD_REACTORS
330
1C
102
}
330
1C
100
AcDbTableStyle
  3
Standard
 70
     0
 71
     0
 40
0.06
 41
0.06
280
     0
281
     0
  7
STANDARD
140
0.18
170
     2
 62
     0
 63
     7
283
     0
274
    -2
284
     1
 64
     0
275
    -2
285
     1
 65
     0
276
    -2
286
     1
 66
     0
277
    -2
287
     1
 67
     0
278
    -2
288
     1
 68
     0
279
    -2
289
     1
 69
     0
  7
STANDARD
140
0.25
170
     5
 62
     0
 63
     7
283
     0
274
    -2
284
     1
 64
     0
275
    -2
285
     1
 65
     0
276
    -2
286
     1
 66
     0
277
    -2
287
     1
 67
     0
278
    -2
288
     1
 68
     0
279
    -2
289
     1
 69
     0
  7
STANDARD
140
0.18
170
     5
 62
     0
 63
     7
283
     0
274
    -2
284
     1
 64
     0
275
    -2
285
     1
 65
     0
276
    -2
286
     1
 66
     0
277
    -2
287
     1
 67
     0
278
    -2
288
     1
 68
     0
279
    -2
289
     1
 69
     0
  0
DICTIONARYVAR
  5
6B1
102
{ACAD_REACTORS
330
6B0
102
}
330
6B0
100
DictionaryVariables
280
     0
  1
STANDARD
  0
DICTIONARYVAR
  5
6B2
102
{ACAD_REACTORS
330
6B0
102
}
330
6B0
100
DictionaryVariables
280
     0
  1
1
  0
DICTIONARYVAR
  5
6B3
102
{ACAD_REACTORS
330
6B0
102
}
330
6B0
100
DictionaryVariables
280
     0
  1

  0
DICTIONARY
  5
6C5
330
25
100
AcDbDictionary
280
     1
281
     1
  3
ACAD_XREC_ROUNDTRIP
360
6C6
  0
DICTIONARY
  5
6C3
330
21
100
AcDbDictionary
280
     1
281
     1
  3
ACAD_XREC_ROUNDTRIP
360
6C4
  0
XRECORD
  5
6C6
102
{ACAD_REACTORS
330
6C5
102
}
330
6C5
100
AcDbXrecord
280
     1
102
SHADEPLOT
 70
     0
102
SHADEPLOTRESLEVEL
 70
     2
102
SHADEPLOTCUSTOMDPI
 70
   300
  0
XRECORD
  5
6C4
102
{ACAD_REACTORS
330
6C3
102
}
330
6C3
100
AcDbXrecord
280
     1
102
SHADEPLOT
 70
     0
102
SHADEPLOTRESLEVEL
 70
     2
102
SHADEPLOTCUSTOMDPI
 70
   300
  0
ENDSEC
  0
EOF
